скачать торрент трекер Friends
 
 Главная  •  Торренты  •  Новые релизы  •  Форум  •   •  Персоны кино  •  Правила  •  ЧаВо

Язык интерфейса
Язык интерфейса:


Привет, Гость
[15] из [15]
Введите Логин:
Введите Пароль:
Регистрация
Восстановить Пароль

Линки
АнекдотыБанкоматВсе теги / меткиДополнительные услугиТехподдержка

Главное Меню
 Главная Торренты Релизы за сегодня Персоны кино Запросы / Предложения (3) Правила ЧаВо Проверка BB кодов Топ 10 Архив новостей Прошлые опросы Форматы файлов Группы Последние комментарии Техподдержка

:: Детали раздачи

Греческая смоковница: Плод созрел / Griechische Feigen (Зиги Ротемунд) [1976, эротика, мелодрама, комедия, DVDRip-AVC] DVO

Скачать
Магнет
ПомощьКак скачать раздачу
Поделиться
Теги / Меткиэротика, мелодрама, комедия
Постер
ОписаниеПеревод: Профессиональный (двухголосый), cубтитры: отсутствуют
Формат: DVDRip-AVC, MKV, H.264, AC3
Страна: Германия (ФРГ)
Режиссер: Зиги Ротемунд
Жанр: эротика, мелодрама, комедия
Продолжительность: 01:30:07
Год выпуска: 1976
В ролях: Оливия Паскаль, Бетти Вергес, Коринн Бродбек, Саби Дорр, Сильвия Фрохлих, Уолтер Краус

Описание: Красивая студентка отправляется в Грецию на каникулы. Она страстно мечтает о новых впечатлениях, переживает неведомые ранее ощущения и, будучи девушкой «сексуально свободной», не отказывает себе в самых разнообразных экспериментах…

[img]http://imdb.snick.ru/ratefor/01/tt0074591.png" alt="http://www.kinopoisk.ru/rating/70978.gif[/img][img]http://turbopic.org/img/2011_03/19/863dc96e-a763-4600-acfd-414a054959e3.png[/img][url=http://i mdb.snick.ru/movie/tt0074591][img]http://imdb.snick.ru/ratefor/01/tt0074591.png" />


Видео: 720x 576 (4:3), 25.000 fps, AVC (х264) http://forum.doom9.org/showthread.php?t=140178

Дата кодирования : UTC 2009-12-07 19:30:19
Программа кодирования : mkvmerge v2.4.1 ('Use Me') built on Dec 5 2008 15:43:32
Библиотека кодирования : libebml v0.7.7 + libmatroska v0.8.1

Видео
Идентификатор : 1
Формат : AVC
Формат/Информация : Advanced Video Codec
Профиль формата : High@L4.0
Параметр CABAC формата : Да
Параметр ReFrames формата : 4 кадры
Идентификатор кодека : V_MPEG4/ISO/AVC
Продолжительность : 1 ч. 30 м.
Битрейт : 1940 Кбит/сек
Ширина : 720 пикс.
Высота : 576 пикс.
Соотношение сторон : 4:3
Соотношение сторон в оригинале : 5:4
Частота кадров : 25,000 кадр/сек
Стандарт вещания : PAL
Цветовое пространство : YUV
Подвыборка цветности : 4:2:0
Битовая глубина : 8 бит
Тип развёртки : Прогрессивная
Бит/(Пиксели*Кадры) : 0.187
Размер потока : 1,19 Гбайт (70%)
Заголовок : D
Библиотека кодирования : x264 core 66 r1092 60f4cd8
Настройки программы : cabac=1 / ref=4 / deblock=1:-1:-1 / analyse=0x3:0x112 / me=umh / subme=6 / psy_rd=1.0:1.0 / mixed_ref=1 / me_range=16 / chroma_me=1 / trellis=1 / 8x8dct=1 / cqm=0 / deadzone=21,11 / chroma_qp_offset=-4 / threads=3 / nr=0 / decimate=1 / mbaff=0 / bframes=5 / b_pyramid=1 / b_adapt=2 / b_bias=0 / direct=3 / wpredb=1 / keyint=250 / keyint_min=25 / scenecut=40(pre) / rc=2pass / bitrate=1940 / ratetol=1.0 / qcomp=0.60 / qpmin=10 / qpmax=51 / qpstep=4 / cplxblur=20.0 / qblur=0.5 / vbv_maxrate=25000 / vbv_bufsize=14000 / ip_ratio=1.40 / pb_ratio=1.30 / aq=1:1.00

Аудио #1
Идентификатор : 2
Формат : AC-3
Формат/Информация : Audio Coding 3
Расширение режима : CM (complete main)
Идентификатор кодека : A_AC3
Продолжительность : 1 ч. 30 м.
Вид битрейта : Постоянный
Битрейт : 384 Кбит/сек
Канал(ы) : 6 канала(ов)
Расположение каналов : Front: L C R, Side: L R, LFE
Частота : 48,0 КГц
Битовая глубина : 16 бит
Метод сжатия : С потерями
Размер потока : 248 Мбайт (14%)
Язык : Russian

Аудио #2
Идентификатор : 3
Формат : AC-3
Формат/Информация : Audio Coding 3
Расширение режима : CM (complete main)
Идентификатор кодека : A_AC3
Продолжительность : 1 ч. 30 м.
Вид битрейта : Постоянный
Битрейт : 384 Кбит/сек
Канал(ы) : 6 канала(ов)
Расположение каналов : Front: L C R, Side: L R, LFE
Частота : 48,0 КГц
Битовая глубина : 16 бит
Метод сжатия : С потерями
Размер потока : 248 Мбайт (14%)
Язык : English

Меню
00:00:00.000 : en:Chapter 1
00:06:22.160 : en:Chapter 2
00:15:26.560 : en:Chapter 3
00:19:31.760 : en:Chapter 4
00:27:39.320 : en:Chapter 5
00:32:46.760 : en:Chapter 6
00:43:08.600 : en:Chapter 7
00:47:45.960 : en:Chapter 8
00:55:51.400 : en:Chapter 9
01:03:29.440 : en:Chapter 10
01:09:39.920 : en:Chapter 11
01:15:15.280 : en:Chapter 12

[/spoiler]
Раскадровка

Показать скриншоты
Скриншоты
Похожие файлы
Загрузка / Обновление
КатегорияЭротика RSS лента
Просмотров118 раз (a)
Взят0 раз (a)
Файлы1
Размер1.71 GB (1,832,666,690 байт)
Добавлен
РаздалViKa  (Искать торренты)
Участники
Участники - Загрузка / Обновление
Просматривают Просматривают Загрузка...

-†- ¿? -†-
« Предыдущая - † Страница † - Следующая »

:: Список Комментариев
Нет комментариев.

 Нет комментариев
Вам запрещенно редактировать, создать или удалять комментарии.
shpv© 2007-2014
Страничка сформирована за 0.092 секунд.
Яндекс.Метрика Rambler's Top100