скачать торрент трекер Friends
 
 Главная  •  Торренты  •  Новые релизы  •  Форум  •   •  Персоны кино  •  Правила  •  ЧаВо

Язык интерфейса
Язык интерфейса:


Привет, Гость
[15] из [15]
Введите Логин:
Введите Пароль:
Регистрация
Восстановить Пароль

Линки
АнекдотыБанкоматВсе теги / меткиДополнительные услугиТехподдержка

Главное Меню
 Главная Торренты Релизы за сегодня Персоны кино Запросы / Предложения (3) Правила ЧаВо Проверка BB кодов Топ 10 Архив новостей Прошлые опросы Форматы файлов Группы Последние комментарии Техподдержка

:: Детали раздачи

Илья Подстрелов - Студентка

Скачать
Магнет
ПомощьКак скачать раздачу
Поделиться
Теги / Меткиpop
Постер
ОписаниеФормат: WEBRip, MPEG-4, H.264, AAC
Песня: Студентка
Жанр: Pop
Продолжительность: 00:02:54
Год выпуска: 2013

Видео: 1920x 1080р ( 16:9 ), 25,000 fps, AVC http://www.youtube.com/watch?v=guflCdywaKI

urlo : http://s.ytimg.com/yts/swfbin/watch_as3-vflqZm7oA.swf


Видео
Идентификатор : 1
Формат : AVC
Формат/Информация : Advanced Video Codec
Профиль формата : High@L4.0
Параметр CABAC формата : Да
Параметр ReFrames формата : 1 кадр
Идентификатор кодека : avc1
Идентификатор кодека/Информация : Advanced Video Coding
Продолжительность : 2 м. 53 с.
Битрейт : 4136 Кбит/сек
Максимальный битрейт : 7392 Кбит/сек
Ширина : 1920 пикселей
Высота : 1080 пикселей
Соотношение сторон : 16:9
Режим частоты кадров : Постоянный
Частота кадров : 25,000 кадров/сек
Цветовое пространство : YUV
Субдискретизация насыщенности : 4:2:0
Битовая глубина : 8 бит
Тип развёртки : Прогрессивная
Бит/(Пиксели*Кадры) : 0.080
Размер потока : 85,5 Мбайт (96%)
Дата пометки : UTC 2013-04-24 13:46:22

Аудио
Идентификатор : 2
Формат : AAC
Формат/Информация : Advanced Audio Codec
Профиль формата : LC
Идентификатор кодека : 40
Продолжительность : 2 м. 53 с.
Вид битрейта : Переменный
Битрейт : 192 Кбит/сек
Максимальный битрейт : 204 Кбит/сек
Каналы : 2 канала
Расположение каналов : Front: L R
Частота : 44,1 КГц
Метод сжатия : С потерями
Размер потока : 3,97 Мбайт (4%)
Заголовок : IsoMedia File Produced by Google, 5-11-2011
Дата кодирования : UTC 2013-04-24 13:46:21
Дата пометки : UTC 2013-04-24 13:46:22
[/spoiler]


Показать скриншоты
Скриншоты
Похожие файлы
Загрузка / Обновление
КатегорияМузыка RSS лента
Просмотров77 раз (a)
Взят4 раз (a)
Файлы1
Размер89.57 MB (93,922,214 байт)
Добавлен
РаздалViKa  (Искать торренты)
Участники
Участники - Загрузка / Обновление
Просматривают Просматривают Загрузка...

-†- ¿? -†-
« Предыдущая - † Страница † - Следующая »

:: Список Комментариев
Нет комментариев.

 Нет комментариев
Вам запрещенно редактировать, создать или удалять комментарии.
shpv© 2007-2014
Страничка сформирована за 0.053 секунд.
Яндекс.Метрика Rambler's Top100