скачать торрент трекер Friends
 
 Главная  •  Торренты  •  Новые релизы  •  Форум  •   •  Персоны кино  •  Правила  •  ЧаВо

Язык интерфейса
Язык интерфейса:


Привет, Гость
[15] из [15]
Введите Логин:
Введите Пароль:
Регистрация
Восстановить Пароль

Линки
АнекдотыБанкоматВсе теги / меткиДополнительные услугиТехподдержка

Главное Меню
 Главная Торренты Релизы за сегодня Персоны кино Запросы / Предложения (3) Правила ЧаВо Проверка BB кодов Топ 10 Архив новостей Прошлые опросы Форматы файлов Группы Последние комментарии Техподдержка

:: Детали раздачи

Bjorn Berge - Discography (1997-2013)

Скачать
Магнет
ПомощьКак скачать раздачу
Поделиться
Теги / Меткиacoustic blues rock
Постер
ОписаниеФормат: FLAC, (image, tracks+ .cue), lossless
Год выпуска: 1997-2013
Страна: Norway
Жанр: Acoustic Blues Rock
Продолжительность: 08:10:41
Описание:

1997 - Bjorn Berge (00:39:51)


Закрыть
1999 - Blues Hit Me (00:44:06)


Закрыть
2000 - Bag Of Nails (00:41:09)


Закрыть
2001 - Stringmachine (00:37:26)

Закрыть
2002 - Illustrated Man (00:46:06)

Закрыть
2004 - St. Slide (00:40:46)

Закрыть
2006 - I'm The Antipop (00:41:56)

Закрыть
2006 - We're Gonna Groove (00:44:39)

Закрыть
2007 - Live In Europe (01:15:23)

Закрыть
2009 - Fretwork (00:49:02)

Закрыть
2011 - Blackwood (00:44:00)

Закрыть[spoiler=2013 - Mad Fingers Ball (00:46:56)]
http://i48.fastpic.ru/big/2013/0627/e6/498a6a7640200ce56b23dcef992db9e6.jpg
Трeклист:

01. Honey White 03:18
02. I Can't Quit You Baby 05:40
03. Mad Fingers Ball 04:12
04. Hush 03:34
05. StaMIna 04:05
06. Guts 03:24
07. Bizarre Guitare 02:57
08. Chevrolet 03:22
09. Heavy Mental 04:10
10. Meanest Blues In Town 04:58
11. Ramblin' On My Mind 03:25
12. The Last Call 03:51

Log EACExact Audio Copy V1.0 beta 3 from 29. August 2011

EAC extraction logfile from 24. March 2013, 11:05

Bjorn Berge / Mad Fingers Ball

Used drive : HL-DT-STDVD+-RW GA11N Adapter: 0 ID: 1

Read mode : Secure
Utilize accurate stream : Yes
Defeat audio cache : Yes
Make use of C2 pointers : No

Read offset correction : 667
Overread into Lead-In and Lead-Out : No
Fill up missing offset samples with silence : Yes
Delete leading and trailing silent blocks : No
Null samples used in CRC calculations : Yes
Used interface : Native Win32 interface for Win NT & 2000
Gap handling : Appended to previous track

Used output format : User Defined Encoder
Selected bitrate : 896 kBit/s
Quality : High
Add ID3 tag : No
Command line compressor : C:\Program Files (x86)\Exact Audio Copy\Flac\flac.exe
Additional command line options : -V -8 -T "artist=%artist%" -T "title=%title%" -T "album=%albumtitle%" -T "date=%year%" -T "tracknumber=%tracknr%" -T "genre=%genre%" %source%

TOC of the extracted CD

Track | Start | Length | Start sector | End sector
---------------------------------------------------------
1 | 0:00.00 | 3:18.23 | 0 | 14872
2 | 3:18.23 | 5:40.36 | 14873 | 40408
3 | 8:58.59 | 4:11.69 | 40409 | 59302
4 | 13:10.53 | 3:33.58 | 59303 | 75335
5 | 16:44.36 | 4:05.23 | 75336 | 93733
6 | 20:49.59 | 3:24.17 | 93734 | 109050
7 | 24:14.01 | 2:57.34 | 109051 | 122359
8 | 27:11.35 | 3:22.25 | 122360 | 137534
9 | 30:33.60 | 4:09.61 | 137535 | 156270
10 | 34:43.46 | 4:57.46 | 156271 | 178591
11 | 39:41.17 | 3:25.24 | 178592 | 193990
12 | 43:06.41 | 3:51.37 | 193991 | 211352

Track 1

Filename C:\EACrips\Bjorn Berge - 2013 - Mad Fingers Ball\01 - Honey White.wav

Pre-gap length 0:00:02.00

Peak level 97.3 %
Extraction speed 2.8 X
Track quality 100.0 %
Test CRC 68B91C9F
Copy CRC 68B91C9F
Track not present in AccurateRip
Copy OK

Track 2

Filename C:\EACrips\Bjorn Berge - 2013 - Mad Fingers Ball\02 - I Can't Quit You Baby.wav

Pre-gap length 0:00:01.34

Peak level 86.8 %
Extraction speed 3.3 X
Track quality 100.0 %
Test CRC CC98D6C8
Copy CRC CC98D6C8
Track not present in AccurateRip
Copy OK

Track 3

Filename C:\EACrips\Bjorn Berge - 2013 - Mad Fingers Ball\03 - Mad Fingers Ball.wav

Peak level 97.4 %
Extraction speed 3.5 X
Track quality 100.0 %
Test CRC 1E847FDD
Copy CRC 1E847FDD
Track not present in AccurateRip
Copy OK

Track 4

Filename C:\EACrips\Bjorn Berge - 2013 - Mad Fingers Ball\04 - Hush.wav

Pre-gap length 0:00:01.46

Peak level 97.3 %
Extraction speed 3.1 X
Track quality 99.9 %
Test CRC E9AB0131
Copy CRC E9AB0131
Track not present in AccurateRip
Copy OK

Track 5

Filename C:\EACrips\Bjorn Berge - 2013 - Mad Fingers Ball\05 - StaMIna.wav

Peak level 94.2 %
Extraction speed 3.9 X
Track quality 100.0 %
Test CRC 8C03447C
Copy CRC 8C03447C
Track not present in Accu
Скриншоты
Похожие файлы
Загрузка / Обновление
КатегорияМузыка RSS лента
Просмотров189 раз (a)
Взят4 раз (a)
Файлы287
Размер3.83 GB (4,116,965,908 байт)
Добавлен
РаздалViKa  (Искать торренты)
Участники
Участники - Загрузка / Обновление
Просматривают Просматривают Загрузка...

-†- ¿? -†-
« Предыдущая - † Страница † - Следующая »

:: Список Комментариев
Нет комментариев.

 Нет комментариев
Вам запрещенно редактировать, создать или удалять комментарии.
shpv© 2007-2014
Страничка сформирована за 0.278 секунд.
Яндекс.Метрика Rambler's Top100