скачать торрент трекер Friends
 
 Главная  •  Торренты  •  Новые релизы  •  Форум  •   •  Персоны кино  •  Правила  •  ЧаВо

Язык интерфейса
Язык интерфейса:


Привет, Гость
[15] из [15]
Введите Логин:
Введите Пароль:
Регистрация
Восстановить Пароль

Линки
АнекдотыБанкоматВсе теги / меткиДополнительные услугиТехподдержка

Главное Меню
 Главная Торренты Релизы за сегодня Персоны кино Запросы / Предложения (3) Правила ЧаВо Проверка BB кодов Топ 10 Архив новостей Прошлые опросы Форматы файлов Группы Последние комментарии Техподдержка

:: Детали раздачи
Торрент раздача является мультитрекерной — учтите, количество раздающих не будет совпадать с количеством участников на сайте (скачивание на клиентской стороне зависит от настроек uTorrent клиент программы, настройки -> Включить DHT, Обмен пирами и Поиск лок-х пиров).
Если висит надпись, пиры по нулям - не бойтесь, возможность скачать повторно торрент раздачу - есть. Попробуйте, в случае отказа - прокоментируйте или нажмите на "Позвать скачавших".

Любовь и лимоны / Små citroner gula (Тереза Фабик / Teresa Fabik) [2013, Швеция, комедия, романтика, DVDRip] Rus Sub

Скачать
Магнет
ПомощьКак скачать раздачу
Поделиться
Теги / Меткикомедия, романтика
Постер
ОписаниеГод выпуска: 2013
Страна: Швеция http://s020.radikal.ru/i720/1401/48/5e639f0b4517.jpg
Студии: Film i Vдst, Tre Vдnner Produktion
Жанр: комедия, романтика
Продолжительность: 01:34:12
Перевод: Субтитры (Ольга Никитина)
Озвучение: нет
Субтитры: русские
Оригинальная дорожка: шведская
Режиссёр: Тереза Фабик / Teresa Fabik
Сценарий: Тереза Фабик
Композитор: Андерс Ниска, Клас Валь
В ролях: Ракель Вермлендер, Дан Экборг, Йозефине Борнебуш, Сверрир Гуднасон, Томас фон Брёмссен, Анки Лиден, Эрик Эриксон, Рикард Ульфсетер, София Рённегорд, Ханна Скогхаг
«Любовь и лимоны» — романтическая комедия о любви, дружбе и смелости при осуществлении мечты. Агнес — шеф-повар, и она обожает готовить. У нее хорошая работа, любящий парень и лучший друг, не бросающий в бедах. Но в один и тот же день ее увольняют с работы, а парень — бросает. Поэтому ей совсем нечего терять, когда приятель предлагает ей стать совладельцем собственного ресторана. А еще она влюбляется в мужчину, который даже не подозревает, кто она на самом деле. Фильм основан на успешной книге Кайсы Ингемарссон.
http://i46.fastpic.ru/big/2013/0607/ca/d3b8a3f336480d20064b14c7d23f43ca.png

Качество: DVDRip
Формат: AVI
Видео-кодек: XviD
Аудио-кодек: AC3
Видео: XviD, 704x288, 25 fps, 1617 kbps, 0.319 bit/pixel
Аудио: http://s020.radikal.ru/i720/1401/48/5e639f0b4517.jpg AC3, 48 kHz, 6 ch, 448 kbps
Субтитры: русские (sofsub)

MediaInfo

General
Complete name                  : D:\Translations\Любовь и лимоны (Smе citroner gula, Sweden) (2013)\Любовь и лимоны (Smе citroner gula, Sweden) (2013).avi
Format                         : AVI
Format/Info                    : Audio Video Interleave
File size                      : 1.37 GiB
Duration                       : 1h 34mn
Overall bit rate               : 2 075 Kbps
Writing application            : FairUse Wizard - http://fairusewizard.com
Writing library                : The best and REALLY easy backup tool
Video
ID                             : 0
Format                         : MPEG-4 Visual
Format profile                 : Advanced Simple@L5
Format settings, BVOP          : Yes
Format settings, QPel          : No
Format settings, GMC           : No warppoints
Format settings, Matrix        : Default (MPEG)
Codec ID                       : XVID
Codec ID/Hint                  : XviD
Duration                       : 1h 34mn
Bit rate                       : 1 617 Kbps
Width                          : 704 pixels
Height                         : 288 pixels
Display aspect ratio           : 2.40:1
Frame rate                     : 25.000 fps
Color space                    : YUV
Chroma subsampling             : 4:2:0
Bit depth                      : 8 bits
Scan type                      : Progressive
Compression mode               : Lossy
Bits/(Pixel*Frame)             : 0.319
Stream size                    : 1.06 GiB (78%)
Writing library                : XviD 1.2.0.dev47 (UTC 2006-11-01)
Audio
ID                             : 1
Format                         : AC-3
Format/Info                    : Audio Coding 3
Mode extension                 : CM (complete main)
Format settings, Endianness    : Big
Codec ID                       : 2000
Duration                       : 1h 34mn
Bit rate mode                  : Constant
Bit rate                       : 448 Kbps
Channel(s)                     : 6 channels
Channel positions              : Front: L C R, Side: L R, LFE
Sampling rate                  : 48.0 KHz
Bit depth                      : 16 bits
Compression mode               : Lossy
Stream size                    : 302 MiB (22%)
Alignment                      : Split accross interleaves
Interleave, duration           : 40 ms (1.00 video frame)
Interleave, preload duration   : 500 ms
Похожие файлы
Загрузка / Обновление
КатегорияФильмы DVD RSS лента
Просмотров159 раз (a)
Взят0 раз (a)
Файлы2
Размер1.37 GB (1,465,896,855 байт)
Добавлен
РаздалViKa  (Искать торренты)
Участники
Участники - Загрузка / Обновление
Просматривают Просматривают Загрузка...

-†- ¿? -†-
« Предыдущая - † Страница † - Следующая »

:: Список Комментариев
Нет комментариев.

 Нет комментариев
Вам запрещенно редактировать, создать или удалять комментарии.
shpv© 2007-2014
Страничка сформирована за 0.137 секунд.
Яндекс.Метрика Rambler's Top100