Friends
 
   •   •   •   •   •   •   • 

:


,
[15] [15]
:
:

/

        / (3)    BB   10          

::
, ( uTorrent , -> DHT, - ).
, - , - . , - " ".

/ Grand Piano ( / Eugenio Mira) [2013, , , , , HDRip] VO (Andi)


/ ,
: ,
: ,
: 2013
: 01:30:06
: | Andi
C:
:
: / Eugenio Mira
: , , , , , , , -, ,
: , - . , , , , . , .
http://rating.kinopoisk.ru/616132.gif
http://imdb.snick.ru/ratefor/03/tt2039345.png

: http://www.sendspace.com/file/tpylb9

: HDRip
: AVI
: XviD 73, 720x304 (2.35:1), 23.976 fps, 1957 Kbps
: AC-3, 48.0 kHz, 320 Kbps, 5.1 ch, CBR
: Scarabey

MediaInfo

General
Complete name : Grand.Piano.2013.L1.HDRip.avi
Format : AVI
Format/Info : Audio Video Interleave
File size : 1.44 GiB
Duration : 1h 30mn
Overall bit rate : 2 286 Kbps
Writing application : VirtualDubMod 1.5.10.3 | www.virtualdub-fr.org || (build 2550/release)
Writing library : VirtualDubMod build 2550/release
Video
ID : 0
Format : MPEG-4 Visual
Format profile : Advanced Simple@L5
Format settings, BVOP : 1
Format settings, QPel : No
Format settings, GMC : No warppoints
Format settings, Matrix : Custom
Codec ID : XVID
Codec ID/Hint : XviD
Duration : 1h 30mn
Bit rate : 1 957 Kbps
Width : 720 pixels
Height : 304 pixels
Display aspect ratio : 2.35:1
Frame rate : 23.976 fps
Color space : YUV
Chroma subsampling : 4:2:0
Bit depth : 8 bits
Scan type : Progressive
Compression mode : Lossy
Bits/(Pixel*Frame) : 0.373
Stream size : 1.23 GiB (86%)
Writing library : XviD 73
Audio
ID : 1
Format : AC-3
Format/Info : Audio Coding 3
Mode extension : CM (complete main)
Format settings, Endianness : Big
Codec ID : 2000
Duration : 1h 30mn
Bit rate mode : Constant
Bit rate : 320 Kbps
Channel(s) : 6 channels
Channel positions : Front: L C R, Side: L R, LFE
Sampling rate : 48.0 KHz
Bit depth : 16 bits
Compression mode : Lossy
Stream size : 206 MiB (14%)
Alignment : Split accross interleaves
Interleave, duration : 42 ms (1.00 video frame)
Interleave, preload duration : 500 ms
/
AVI RSS
82 (a)
1 (a)
1
1.44 GB (1,544,835,072 )
: 2.84 GB
ViKa  ( )
- /
...

-- ¿? --
- -

::
.

 
, .
shpv© 2007-2014
0.278 .
. Rambler's Top100