скачать торрент трекер Friends
 
 Главная  •  Торренты  •  Новые релизы  •  Форум  •   •  Персоны кино  •  Правила  •  ЧаВо

Язык интерфейса
Язык интерфейса:


Привет, Гость
[15] из [15]
Введите Логин:
Введите Пароль:
Регистрация
Восстановить Пароль

Линки
АнекдотыБанкоматВсе теги / меткиДополнительные услугиТехподдержка

Главное Меню
 Главная Торренты Релизы за сегодня Персоны кино Запросы / Предложения (3) Правила ЧаВо Проверка BB кодов Топ 10 Архив новостей Прошлые опросы Форматы файлов Группы Последние комментарии Техподдержка

:: Детали раздачи
Торрент раздача является мультитрекерной — учтите, количество раздающих не будет совпадать с количеством участников на сайте (скачивание на клиентской стороне зависит от настроек uTorrent клиент программы, настройки -> Включить DHT, Обмен пирами и Поиск лок-х пиров).
Если висит надпись, пиры по нулям - не бойтесь, возможность скачать повторно торрент раздачу - есть. Попробуйте, в случае отказа - прокоментируйте или нажмите на "Позвать скачавших".

Хоббит: Пустошь Смауга / The Hobbit: The Desolation of Smaug (Питер Джексон / Peter Jackson) [2013, США, Новая Зеландия, Фэнтези, приключения, BDRip-AVC] Dub + Original Eng + Sub (Rus, Eng)

Скачать
Магнет
ПомощьКак скачать раздачу
Поделиться
Теги / Меткифэнтези, приключения
Постер
ОписаниеThe Hobbit: The Desolation of Smaug«Beyond darkness... beyond desolation... lies the greatest danger of all»
http://i33.fastpic.ru/big/2014/0401/52/8d16a2362f4f65788f7d8c1dcc783c52.pngСтрана: http://i27.fastpic.ru/big/2011/1228/f8/9ccd2997cdd66f02e71ada086c169ef8.gifСША, http://i60.fastpic.ru/big/2013/1005/13/6da02794d5df6080096226b4518e6613.jpgНовая Зеландия
Жанр: фэнтези, приключения.
Год выпуска: 2013
Продолжительность: 02:41:17
Перевод: Профессиональный (полное дублирование) Blu-ray CEE
Оригинальная аудиодорожка:английский.
Субтитры: русские (forced), русские (Blu-ray CEE), английские.
Режиссер: Питер Джексон / Peter Jackson
В ролях:
Мартин Фриман (Bilbo), Ричард Армитедж (Thorin), Иэн МакКеллен (Gandalf), Эванджелин Лилли (Tauriel), Орландо Блум (Legolas), Люк Эванс (Bard / Girion), Бенедикт Камбербэтч (Smaug / Necromancer), Ли Пейс (Thranduil), Кен Стотт (Balin), Эйдан Тернер (Kili), Грэм МакТавиш (Dwalin), Джеймс Несбитт (Bofur)
Дублёры: Илья Хвостиков (Bilbo), Игорь Балалаев (Thorin), Василий Бочкарев (Gandalf), Марьяна Спивак (Tauriel), Олег Вирозуб (Legolas), Дмитрий Поляновский (Bard), Александр Головчанский (Smaug), Антон Савенков (Thranduil), Борис Быстров (Balin), Александр Дзюба (Kili), Борис Токарев (Dwalin), Игорь Старосельцев (Oin)
Описание: Продолжение путешествия хоббита Бильбо Бэггинса, волшебника Гэндальфа и 13 отважных гномов. Их компания обязана завершить своё путешествие к Одинокой горе. Там они должны встретиться с величайшей опасностью из всех - созданием куда более ужасающим, чем все их прошлые противники, которое проверит на прочность не только их мужество, но крепость их дружбы и правильность выбранного пути, - драконом Смаугом.

http://static.rutracker.org/ranks/rg_torrents_logo.png

http://www.kinopoisk.ru/rating/408876.gif

MPAA
: PG-13
- Детям до 13 лет просмотр не желателен
Качество: BDRip-AVC (The Hobbit The Desolation Of Smaug.2013.1080p.BluRay.DTS-HD.MA.7.1)
Контейнер: MKV
Видео: AVC, 1104x460 (2.40:1), 2978 kbps, 23,976 fps, 0,245 bpp
Аудио №1: русский / AC3 / 5.1 / 48 kHz / 448 kbps / Дублированный (Blu-ray CEE)
Аудио №2: английский / AC3 / 5.1 / 48 kHz / 448 kbps / Eng
Субтитры: русские (forced), русские (Blu-ray CEE), английские.
Навигация по главам: есть (главы подписаны)

Сэмпл


Media Info

General
Unique ID : 246774648123592886444578057793945859153 (0xB9A71184DEB76CE19467CC3CD2F9F451)
Complete name : D:\The Hobbit The Desolation of Smaug.2013.BDrip-AVC.Froloff777.mkv
Format : Matroska
Format version : Version 4 / Version 2
File size : 4.36 GiB
Duration : 2h 41mn
Overall bit rate : 3 873 Kbps
Movie name : The Hobbit: The Desolation of Smaug
Encoded date : UTC 2014-03-26 12:22:18
Writing application : mkvmerge v6.1.0 ('Old Devil') built on Mar 4 2013 09:10:42
Writing library : libebml v1.3.0 + libmatroska v1.4.0
Attachment : Yes
Video
ID : 1
Format : AVC
Format/Info : Advanced Video Codec
Format profile : High@L4.1
Format settings, CABAC : Yes
Format settings, ReFrames : 10 frames
Codec ID : V_MPEG4/ISO/AVC
Duration : 2h 41mn
Bit rate : 2 978 Kbps
Width : 1 104 pixels
Height : 460 pixels
Display aspect ratio : 2.40:1
Frame rate mode : Constant
Frame rate : 23.976 fps
Color space : YUV
Chroma subsampling : 4:2:0
Bit depth : 8 bits
Scan type : Progressive
Bits/(Pixel*Frame) : 0.245
Stream size : 3.27 GiB (75%)
Title : The Hobbit: The Desolation of Smaug
Writing library : x264 core 130 r2273 b3065e6
Encoding settings : cabac=1 / ref=10 / deblock=1:-2:-2 / analyse=0x3:0x113 / me=umh / subme=11 / psy=1 / psy_rd=0.95:0.10 / mixed_ref=1 / me_range=32 / chroma_me=1 / trellis=2 / 8x8dct=1 / cqm=0 / deadzone=21,11 / fast_pskip=0 / chroma_qp_offset=-3 / threads=6 / lookahead_threads=1 / sliced_threads=0 / nr=0 / decimate=0 / interlaced=0 / bluray_compat=0 / constrained_intra=0 / bframes=10 / b_pyramid=2 / b_adapt=2 / b_bias=0 / direct=3 / weightb=1 / open_gop=0 / weightp=2 / keyint=250 / keyint_min=24 / scenecut=40 / intra_refresh=0 / rc_lookahead=60 / rc=2pass / mbtree=0 / bitrate=2978 / ratetol=1.0 / qcomp=0.65 / qpmin=0 / qpmax=69 / qpstep=4 / cplxblur=20.0 / qblur=0.5 / vbv_maxrate=50000 / vbv_bufsize=62500 / nal_hrd=none / ip_ratio=1.40 / pb_ratio=1.30 / aq=2:1.10
Language : English
Default : Yes
Forced : No
Audio #1
ID : 2
Format : AC-3
Format/Info : Audio Coding 3
Mode extension : CM (complete main)
Format settings, Endianness : Big
Codec ID : A_AC3
Duration : 2h 41mn
Bit rate mode : Constant
Bit rate : 448 Kbps
Channel(s) : 6 channels
Channel positions : Front: L C R, Side: L R, LFE
Sampling rate : 48.0 KHz
Bit depth : 16 bits
Compression mode : Lossy
Stream size : 517 MiB (12%)
Title : Дублированный Blu-ray CEE
Language : Russian
Default : Yes
Forced : No
Audio #2
ID : 3
Format : AC-3
Format/Info : Audio Coding 3
Mode extension : CM (complete main)
Format settings, Endianness : Big
Codec ID : A_AC3
Duration : 2h 41mn
Bit rate mode : Constant
Bit rate : 448 Kbps
Channel(s) : 6 channels
Channel positions : Front: L C R, Side: L R, LFE
Sampling rate : 48.0 KHz
Bit depth : 16 bits
Compression mode : Lossy
Stream size : 517 MiB (12%)
Language : English
Default : No
Forced : No
Text #1
ID : 4
Format : UTF-8
Codec ID : S_TEXT/UTF8
Codec ID/Info : UTF-8 Plain Text
Title : Forced Blu-ray CEE
Language : Russian
Default : Yes
Forced : No
Text #2
ID : 5
Format : UTF-8
Codec ID : S_TEXT/UTF8
Codec ID/Info : UTF-8 Plain Text
Title : Full Blu-ray CEE
Language : Russian
Default : No
Forced : No
Text #3
ID : 6
Format : UTF-8
Codec ID : S_TEXT/UTF8
Codec ID/Info : UTF-8 Plain Text
Language : English
Default : No
Forced : No
Menu
00:00:00.000 : en:The Quest for Erebor
00:05:44.093 : en:Wilderland
00:10:10.985 : en:The Master Summons
00:11:10.127 : en:A Commander of Legions
00:13:50.204 : en:Queer Lodgings
00:17:12.656 : en:The Elven-gate
00:21:25.325 : en:Mirkwood
00:24:33.471 : en:Flies and Spiders
00:33:03.272 : en:The Woodland Realm
00:36:05.746 : en:The Elvenking
00:39:38.959 : en:King and Captain
00:41:29.653 : en:Feast of Starlight
00:44:27.289 : en:Barrels Out of Bond
00:55:01.756 : en:The High Fells
00:58:41.768 : en:Bard the Bowman
01:02:05.138 : en:The Nature of Evil
01:05:29.592 : en:Smuggled Cargo
01:09:06.267 : en:Lake-town
01:11:29.118 : en:The Master of Lake-town
01:13:11.762 : en:The Home of Bard
01:19:14.958 : en:"It Is Our Fight"
01:20:48.468 : en:The Prophecy
01:23:12.529 : en:A Warm Welcome
01:27:09.641 : en:The Lonely Mountain
01:30:45.481 : en:A Spell of Concealment
01:33:29.812 : en:On the Doorstep
01:41:57.194 : en:Kingsfoil
01:42:24.471 : en:The Courage of Hobbits
01:44:08.033 : en:The Enemy Revealed
01:47:34.114 : en:Inside Information
01:56:46.332 : en:The Black Arrow
01:57:28.916 : en:In the Dragon's Lair
01:58:03.409 : en:Under Arrest
01:59:42.300 : en:Bilbo the Burglar
02:01:30.574 : en:Smaug the Magnificent
02:04:04.311 : en:Orc Attack
02:07:58.462 : en:Confrontations
02:09:43.108 : en:Elvish Medicine
02:10:58.642 : en:Hunter and Hunted
02:12:31.443 : en:"She Walks in Starlight"
02:13:54.317 : en:A Desperate Plan
02:16:25.427 : en:Duel in Lake-town
02:18:51.489 : en:The Forges Relit
02:26:03.588 : en:Smaug the Golden
02:30:51.208 : en:Credits

Скриншоты


Сравнение с исходником
Похожие файлы
Загрузка / Обновление
КатегорияФильмы AVI RSS лента
Просмотров74 раз (a)
Взят1 раз (a)
Файлы1
Размер4.36 GB (4,685,798,085 байт)
ТраффикСкачано: 4.36 GB, Отдано: 91.11 MB
Добавлен
РаздалViKa  (Искать торренты)
Участники
Участники - Загрузка / Обновление
Просматривают Просматривают Загрузка...

-†- ¿? -†-
« Предыдущая - † Страница † - Следующая »

:: Список Комментариев
Нет комментариев.

 Нет комментариев
Вам запрещенно редактировать, создать или удалять комментарии.
shpv© 2007-2014
Страничка сформирована за 1.696 секунд.
Яндекс.Метрика Rambler's Top100