скачать торрент трекер Friends
 
 Главная  •  Торренты  •  Новые релизы  •  Форум  •   •  Персоны кино  •  Правила  •  ЧаВо

Язык интерфейса
Язык интерфейса:


Привет, Гость
[15] из [15]
Введите Логин:
Введите Пароль:
Регистрация
Восстановить Пароль

Линки
АнекдотыБанкоматВсе теги / меткиДополнительные услугиТехподдержка

Главное Меню
 Главная Торренты Релизы за сегодня Персоны кино Запросы / Предложения (3) Правила ЧаВо Проверка BB кодов Топ 10 Архив новостей Прошлые опросы Форматы файлов Группы Последние комментарии Техподдержка

:: Детали раздачи
Торрент раздача является мультитрекерной — учтите, количество раздающих не будет совпадать с количеством участников на сайте (скачивание на клиентской стороне зависит от настроек uTorrent клиент программы, настройки -> Включить DHT, Обмен пирами и Поиск лок-х пиров).
Если висит надпись, пиры по нулям - не бойтесь, возможность скачать повторно торрент раздачу - есть. Попробуйте, в случае отказа - прокоментируйте или нажмите на "Позвать скачавших".

Склифосовский / Сезон: 3 / Серии: 1-3 из 24 (Юлия Краснова)

Скачать
Магнет
ПомощьКак скачать раздачу
Поделиться
Теги / Меткидрама, мелодрама
Постер
ОписаниеСклифосовский



Год выпуска: 2014
Страна: Россия
Жанр: драма, мелодрама
Продолжительность: 00:45:36
Перевод:
|Не требуется, |
Субтитры: Отсутствуют

Режиссер: Юлия Краснова

В ролях: Максим Аверин (Олег Брагин), Ольга Красько (Лариса Куликова), Дмитрий Миллер (Петр Пастухов), Евгений Галушко (Мухин Иван Федорович, кардиолог), Ольга Павловец (Полина), Екатерина Травова (Третьякова), Антон Эльдаров (Салам), Алёна Яковлева (Шейна), Эммануил Виторган (Бреславец), Владимир Жеребцов (Костя), Мария Кожевникова (Аня, медсестра), Лаура Кеосаян (Эмма)

Описание:
Долгожданное продолжение истории о врачах и пациентах легендарного Института скорой помощи имени Склифосовского. В центре внимания по-прежнему хирург Олег Брагин (Максим Аверин). Блестящий врач, ироничный циник, "приколист" и ловелас – таким его видели окружающие до того, как Брагин женился. Теперь ему придется остепениться и стать примерным семьянином. Но возможно ли это, особенно если в его жизнь неожиданно возвращается давняя любовь?
В третьем сезоне героев ждут серьезные перемены. После ухода Зименской (Марина Могилевская) в Склиф неожиданно возвращается Марина Нарочинская (Мария Куликова), которую назначают главврачом. Ее появление становится тяжелым испытанием для Олега Брагина, теперь семейного человека. Немало шокирующих сюрпризов преподнесет его молодая жена - кроткая медсестра Лена (Надежда Горелова). Брагин вновь окажется перед трудным выбором, особенно когда узнает, что у Нарочинской - бурная личная жизнь: она теперь счастлива со своим новым избранником Александром (Сергей Жигунов).
Мир в семье Пастуховых пошатнет смещение Петра (Дмитрий Миллер) с должности заведующего отделением. После появления ребенка его жена Полина (Ольга Павловец) уже не сможет сквозь пальцы смотреть на инфантильность своего мужа в быту.
На место Пастухова Нарочинская приглашает опытного врача Ирину Алексеевну Павлову (Елена Яковлева), которой предстоит непростая задача - упорядочить бурлящий неожиданностями и постоянными авралами мир Склифа.
Салама (Антон Эльдаров) ждет настоящая взрослая жизнь с его новой избранницей. Неискушенный и наивный парень прежде не подозревал, как нелегко ему будет сохранить отношения с девушкой, воспитанной на совершенно иных ценностях.
Костику (Владимир Жеребцов) предстоит ответить себе на главный вопрос: что же ему дороже - работа на износ за небольшие деньги в Склифе или размеренная обеспеченная жизнь?

Рейтинг
http://rating.kinopoisk.ru/584956.gif

Качество: HDTVRip 720p |Исходник: Sklifosovskiy.S03.1080i.HDTV.HDCLUB
Формат: MKV
Видео кодек: AVC
Аудио кодек: AC3
Видео: AVC, 1280x718 (16:9), 3571 kbps, 25 fps, 0,155 bpp
Аудио: AC3 / 2.0 / 48 kHz / 192 kbps / 16 bit
http://i58.fastpic.ru/big/2013/1208/f6/6b9ec02eb3f203a7ab5c4deb62efbff6.png

Оформление и рип: Messa-fan
За исходник спасибо Nez с HDCLUB

MI + x264 log



Код:
General
Unique ID                                : 171662758962671624755984184783597028458 (0x81250B76D93574C7AD4513DC4491446A)
Complete name                            : F:\Sklifosovskiy.S03.720p.HDTV\Sklifosovskiy.S03E01.720p.mkv
Format                                   : Matroska
Format version                           : Version 2
File size                                : 1.20 GiB
Duration                                 : 45mn 36s
Overall bit rate                         : 3 765 Kbps
Encoded date                             : UTC 2014-04-15 10:19:09
Writing application                      : mkvmerge v6.1.0 ('Old Devil') built on Mar  4 2013 09:10:42
Writing library                          : libebml v1.3.0 + libmatroska v1.4.0

Video
ID                                       : 1
Format                                   : AVC
Format/Info                              : Advanced Video Codec
Format profile                           : High@L4.1
Format settings, CABAC                   : Yes
Format settings, ReFrames                : 7 frames
Codec ID                                 : V_MPEG4/ISO/AVC
Duration                                 : 45mn 36s
Bit rate                                 : 3 571 Kbps
Width                                    : 1 280 pixels
Height                                   : 718 pixels
Display aspect ratio                     : 16:9
Frame rate                               : 25.000 fps
Color space                              : YUV
Chroma subsampling                       : 4:2:0
Bit depth                                : 8 bits
Scan type                                : Progressive
Bits/(Pixel*Frame)                       : 0.155
Stream size                              : 1.11 GiB (93%)
Writing library                          : x264 core 130 r2273 b3065e6
Encoding settings                        : cabac=1 / ref=7 / deblock=1:-3:-3 / analyse=0x3:0x113 / me=umh / subme=10 / psy=1 / psy_rd=1.00:0.05 / mixed_ref=1 / me_range=32 / chroma_me=1 / trellis=2 / 8x8dct=1 / cqm=0 / deadzone=21,11 / fast_pskip=0 / chroma_qp_offset=-5 / threads=6 / lookahead_threads=1 / sliced_threads=0 / nr=0 / decimate=1 / interlaced=0 / bluray_compat=0 / constrained_intra=0 / bframes=8 / b_pyramid=2 / b_adapt=2 / b_bias=0 / direct=3 / weightb=1 / open_gop=0 / weightp=1 / keyint=250 / keyint_min=25 / scenecut=40 / intra_refresh=0 / rc_lookahead=60 / rc=2pass / mbtree=1 / bitrate=3571 / ratetol=1.0 / qcomp=0.80 / qpmin=0 / qpmax=69 / qpstep=4 / cplxblur=20.0 / qblur=0.5 / vbv_maxrate=50000 / vbv_bufsize=62500 / nal_hrd=none / ip_ratio=1.25 / aq=1:0.70
Default                                  : Yes
Forced                                   : No

Audio
ID                                       : 2
Format                                   : AC-3
Format/Info                              : Audio Coding 3
Mode extension                           : CM (complete main)
Codec ID                                 : A_AC3
Duration                                 : 45mn 36s
Bit rate mode                            : Constant
Bit rate                                 : 192 Kbps
Channel(s)                               : 2 channels
Channel positions                        : Front: L R
Sampling rate                            : 48.0 KHz
Bit depth                                : 16 bits
Compression mode                         : Lossy
Stream size                              : 62.6 MiB (5%)
Default                                  : Yes
Forced                                   : No









Внимание!: Раздача ведётся путём добавления новых серий
Скриншоты
Похожие файлы
Загрузка / Обновление
КатегорияСериалы RSS лента
Просмотров54 раз (a)
Взят0 раз (a)
Файлы3
Размер3.65 GB (3,918,477,170 байт)
Добавлен
РаздалViKa  (Искать торренты)
Участники
Участники - Загрузка / Обновление
Просматривают Просматривают Загрузка...

-†- ¿? -†-
« Предыдущая - † Страница † - Следующая »

:: Список Комментариев
Нет комментариев.

 Нет комментариев
Вам запрещенно редактировать, создать или удалять комментарии.
shpv© 2007-2014
Страничка сформирована за 0.412 секунд.
Яндекс.Метрика Rambler's Top100