скачать торрент трекер Friends
 
 Главная  •  Торренты  •  Новые релизы  •  Форум  •   •  Персоны кино  •  Правила  •  ЧаВо

Язык интерфейса
Язык интерфейса:


Привет, Гость
[15] из [15]
Введите Логин:
Введите Пароль:
Регистрация
Восстановить Пароль

Линки
АнекдотыБанкоматВсе теги / меткиДополнительные услугиТехподдержка

Главное Меню
 Главная Торренты Релизы за сегодня Персоны кино Запросы / Предложения (3) Правила ЧаВо Проверка BB кодов Топ 10 Архив новостей Прошлые опросы Форматы файлов Группы Последние комментарии Техподдержка

:: Детали раздачи
Торрент раздача является мультитрекерной — учтите, количество раздающих не будет совпадать с количеством участников на сайте (скачивание на клиентской стороне зависит от настроек uTorrent клиент программы, настройки -> Включить DHT, Обмен пирами и Поиск лок-х пиров).
Если висит надпись, пиры по нулям - не бойтесь, возможность скачать повторно торрент раздачу - есть. Попробуйте, в случае отказа - прокоментируйте или нажмите на "Позвать скачавших".

Свидание вслепую / Blind Date (Блейк Эдвардс / Blake Edwards) [1987, США, комедия, мелодрама, BDRip-AVC] Dub (Варус Видео) + MVO (R5) + AVO (А.Михалев) + (С. Визгунов) + Sub Rus, Eng + Original Eng

Скачать
Магнет
ПомощьКак скачать раздачу
Поделиться
Теги / Меткикомедия, мелодрама
Постер
ОписаниеСтрана: США
Жанр: комедия, мелодрама
Год выпуска: 1987
Продолжительность: 01:35:13

Перевод: Профессиональный (дублированный) Варус Видео
Перевод 2: Профессиональный (многоголосый закадровый) R5
Перевод 3: Авторский (одноголосый закадровый) А.Михалев
Перевод 4: С. Визгунов (+ женский голос)
Cубтитры: Rus, Eng
Оригинальная аудиодорожка: английский

Режиссер: Блейк Эдвардс / Blake Edwards

В ролях:
Ким Бейсингер / Kim Basinger
Брюс Уиллис / Bruce Willis
Джон Ларрокетт, Уильям Дэниелс, Джордж Коу, Марк Блум, Фил Хартмен, Стефани Фэраси, Элис Хёрсон, Грэм Старк

ОписаниеУолтер Дэвис — трудоголик, и вполне естественно, что все свое внимание он уделяет работе, а не личной жизни или внешности. Для очень важной деловой встречи в ресторане с новым партнером из Японии, Уолтеру потребовалась спутница.
Его брат посоветовал взять с собой очаровательную Надю, кузину его жены. Но есть одно но: Наде нельзя пить… совсем! К сожалению, это предупреждение Уолтер пропустил мимо ушей.

Сэмпл
http://rating.kinopoisk.ru/4072.gif
IMDb: 5.80 (13 942)

Качество видео: BDRip-AVC [BLIND_DATE_BLUEBIRD]
Формат видео: MKV

Видео: AVC 2 485 Kbps : 1024 x 428 (2.393) 23.976 fps
Аудио: AC-3 192 Kbps 2 channels, 48.0 KHz DUB Варус Видео
Аудио 2: AC-3 384 Kbps 6 channels, 48.0 KHz MVO R5
Аудио 3: AC-3 224 Kbps 2 channels, 48.0 KHz Eng

Отдельным файлом

Аудио 4: AC-3 192 Kbps 2 channels, 48.0 KHz AVO А.Михалев
Аудио 5: AC-3 192 Kbps 2 channels, 48.0 KHz С. Визгунов (+ женский голос)

Формат субтитров: softsub (SRT)

MediaInfo | Log


Format : Matroska
Format version : Version 4 / Version 2
File size : 2.19 GiB
Duration : 1h 35mn
Overall bit rate : 3 286 Kbps
Encoded date : UTC 2014-04-15 10:09:34
Writing application : mkvmerge v6.7.0 ('Back to the Ground') 32bit built on Jan 8 2014 15:03:17
Writing library : libebml v1.3.0 + libmatroska v1.4.1

Video
ID : 1
Format : AVC
Format/Info : Advanced Video Codec
Format profile : High@L4.1
Format settings, CABAC : Yes
Format settings, ReFrames : 12 frames
Codec ID : V_MPEG4/ISO/AVC
Duration : 1h 35mn
Bit rate : 2 485 Kbps
Width : 1 024 pixels
Height : 428 pixels
Display aspect ratio : 2.40:1
Frame rate mode : Constant
Frame rate : 23.976 fps
Color space : YUV
Chroma subsampling : 4:2:0
Bit depth : 8 bits
Scan type : Progressive
Bits/(Pixel*Frame) : 0.236
Stream size : 1.61 GiB (74%)
Writing library : x264 core 140 r2377 1ca7bb9
Encoding settings : cabac=1 / ref=12 / deblock=1:-2:-1 / analyse=0x3:0x133 / me=umh / subme=11 / psy=1 / psy_rd=1.00:0.05 / mixed_ref=1 / me_range=32 / chroma_me=1 / trellis=2 / 8x8dct=1 / cqm=0 / deadzone=21,11 / fast_pskip=0 / chroma_qp_offset=-3 / threads=12 / lookahead_threads=2 / sliced_threads=0 / nr=0 / decimate=1 / interlaced=0 / bluray_compat=0 / constrained_intra=0 / bframes=8 / b_pyramid=2 / b_adapt=2 / b_bias=0 / direct=3 / weightb=1 / open_gop=0 / weightp=2 / keyint=250 / keyint_min=23 / scenecut=40 / intra_refresh=0 / rc_lookahead=60 / rc=2pass / mbtree=1 / bitrate=2485 / ratetol=1.0 / qcomp=0.60 / qpmin=0 / qpmax=69 / qpstep=4 / cplxblur=20.0 / qblur=0.5 / ip_ratio=1.40 / aq=1:1.00
Language : English
Default : Yes
Forced : No

Audio #1
ID : 2
Format : AC-3
Format/Info : Audio Coding 3
Format profile : Dolby Digital
Mode extension : CM (complete main)
Format settings, Endianness : Big
Codec ID : A_AC3
Duration : 1h 35mn
Bit rate mode : Constant
Bit rate : 192 Kbps
Channel(s) : 2 channels
Channel positions : Front: L R
Sampling rate : 48.0 KHz
Bit depth : 16 bits
Compression mode : Lossy
Stream size : 131 MiB (6%)
Title : DUB
Language : Russian
Default : Yes
Forced : No

Audio #2
ID : 3
Format : AC-3
Format/Info : Audio Coding 3
Mode extension : CM (complete main)
Format settings, Endianness : Big
Codec ID : A_AC3
Duration : 1h 35mn
Bit rate mode : Constant
Bit rate : 384 Kbps
Channel(s) : 6 channels
Channel positions : Front: L C R, Side: L R, LFE
Sampling rate : 48.0 KHz
Bit depth : 16 bits
Compression mode : Lossy
Stream size : 262 MiB (12%)
Title : MVO R5
Language : Russian
Default : No
Forced : No

Audio #3
ID : 4
Format : AC-3
Format/Info : Audio Coding 3
Mode extension : CM (complete main)
Format settings, Endianness : Big
Codec ID : A_AC3
Duration : 1h 35mn
Bit rate mode : Constant
Bit rate : 224 Kbps
Channel(s) : 2 channels
Channel positions : Front: L R
Sampling rate : 48.0 KHz
Bit depth : 16 bits
Compression mode : Lossy
Stream size : 153 MiB (7%)
Title : Original
Language : English
Default : No
Forced : No

Text #1
ID : 5
Format : UTF-8
Codec ID : S_TEXT/UTF8
Codec ID/Info : UTF-8 Plain Text
Language : Russian
Default : No
Forced : No

Text #2
ID : 6
Format : UTF-8
Codec ID : S_TEXT/UTF8
Codec ID/Info : UTF-8 Plain Text
Language : English
Default : No
Forced : No

Menu
00:00:00.000 : en:00:00:00.000
00:05:28.703 : en:00:05:28.703
00:10:19.953 : en:00:10:19.953
00:13:53.624 : en:00:13:53.624
00:18:20.349 : en:00:18:20.349
00:23:03.632 : en:00:23:03.632
00:27:42.369 : en:00:27:42.369
00:32:51.344 : en:00:32:51.344
00:37:31.291 : en:00:37:31.291
00:44:16.070 : en:00:44:16.070
00:51:33.007 : en:00:51:33.007
00:56:34.891 : en:00:56:34.891
01:03:47.574 : en:01:03:47.574
01:10:32.353 : en:01:10:32.353
01:22:26.483 : en:01:22:26.483
01:30:58.328 : en:01:30:58.328


Скриншоты
Похожие файлы
Загрузка / Обновление
КатегорияФильмы AVI RSS лента
Просмотров134 раз (a)
Взят3 раз (a)
Файлы3
Размер2.44 GB (2,621,223,616 байт)
Добавлен
РаздалViKa  (Искать торренты)
Участники
Участники - Загрузка / Обновление
Просматривают Просматривают Загрузка...

-†- ¿? -†-
« Предыдущая - † Страница † - Следующая »

:: Список Комментариев
Нет комментариев.

 Нет комментариев
Вам запрещенно редактировать, создать или удалять комментарии.
shpv© 2007-2014
Страничка сформирована за 0.872 секунд.
Яндекс.Метрика Rambler's Top100