скачать торрент трекер Friends
 
 Главная  •  Торренты  •  Новые релизы  •  Форум  •   •  Персоны кино  •  Правила  •  ЧаВо

Язык интерфейса
Язык интерфейса:


Привет, Гость
[15] из [15]
Введите Логин:
Введите Пароль:
Регистрация
Восстановить Пароль

Линки
АнекдотыБанкоматВсе теги / меткиДополнительные услугиТехподдержка

Главное Меню
 Главная Торренты Релизы за сегодня Персоны кино Запросы / Предложения (3) Правила ЧаВо Проверка BB кодов Топ 10 Архив новостей Прошлые опросы Форматы файлов Группы Последние комментарии Техподдержка

:: Детали раздачи
Торрент раздача является мультитрекерной — учтите, количество раздающих не будет совпадать с количеством участников на сайте (скачивание на клиентской стороне зависит от настроек uTorrent клиент программы, настройки -> Включить DHT, Обмен пирами и Поиск лок-х пиров).
Если висит надпись, пиры по нулям - не бойтесь, возможность скачать повторно торрент раздачу - есть. Попробуйте, в случае отказа - прокоментируйте или нажмите на "Позвать скачавших".

Анжелика / Angand#233;lique [Полная коллекция. 5 фильмов] (Бернар Бордери / Bernard Borderie) [1964, 1965, 1967, 1968, Франция, Мелодрама, приключения, история, BDRip-AVC] Dub + MVO (НТВ) +AVO (Штейн) + Ukr + Fre + Sub Rus

Скачать
Магнет
ПомощьКак скачать раздачу
Поделиться
Торрент релиз золотой — считается исключительно трафик отданного, число скачанного не учитывается.
Теги / Меткимелодрама, приключения, история
Постер
ОписаниеСтрана: Франция, Германия (ФРГ), Италия / Franco London Films
Жанр: мелодрама, приключения, история
Год выпуска: 1964
Продолжительность: 01:51:57

Перевод 1: Профессиональный (полное дублирование) Советский Дубляж + вставки НТВ
Перевод 2: Профессиональный (многоголосый закадровый) НТВ
Перевод 3: Авторский (одноголосый закадровый) Владимир Штейн
Перевод 4: Профессиональный (двухголосый закадровый) украинский (1+1)
Cубтитры: русские
Оригинальная аудиодорожка: французский

Режиссер: Бернар Бордери / Bernard Borderie

В ролях: Мишель Мерсье, Робер Оссейн, Жан Рошфор, Клод Жиро, Джулиано Джемма, Шарль Ренье, Жак Тожа, Мадлен ЛеБо, Жан Топар, Бернар Воринже, Жан Озенн, Франсуа Мэтр, Робер Порт, Рената Эверт, Жак Кастело, Бернар Ла Жарриж, Розальба Нери, Андре Руйе, Клер Атана, Эллен Баль, Катрин Кларенс, Элизабет Эрси

Описание: Анжелика, необыкновенно красивая бедная аристократка вынуждена выйти замуж за Жоффрея де Пейрака. Несмотря на его внешность она со временем полюбила его. Влюбленные живут счастливо в своем замке, пока однажды к ним не приезжает король. Восхищенный красотой Анжелики Людовик XIV хочет сделать ее своей наложницей…

Качество видео: BDRip-AVC |Angelique: Collection (1964-1968) {5-Disc Edition} Blu-ray 1080p AVC DTS-HD 5.1 HDCLUB|
Формат видео: MKV

Видео: AVC (x264), 1120x476 (2.35:1), ~2690 kbps, 25.000 fps, 0.202 bpp
Аудио 1: AС3, 48 KHz, 2 ch, 192 kbps - (DUB)
Аудио 2: AС3, 48 KHz, 2 ch, 192 kbps - (MVO)
Аудио 3: AС3, 48 KHz, 6 ch, 448 kbps - (AVO)
Аудио 4: AС3, 48 KHz, 2 ch, 192 kbps - (DVO)
Аудио 5: AС3, 48 KHz, 6 ch, 448 kbps - (ORG) (отдельно)
Формат субтитров: softsub (SRT)



x264|MediaInfo


Общее
Уникальный идентификатор : 254949561341137704982329003040001877075 (0xBFCD7FDBEC9FFD9E9D9DB86253EDE453)
Полное имя : H:\Анжелика. Коллекция_1964-1968.BDRip.(AVC)\1.Анжелика, маркиза ангелов_1964\1_Angelique.Collection.BDRip(AVC).mkv
Формат : Matroska
Версия формата : Version 4 / Version 2
Размер файла : 2,91 Гбайт
Продолжительность : 1 ч. 51 м.
Общий поток : 3715 Кбит/сек
Название фильма : Анжелика: Коллекция / Angйlique: Collection (1964-1968) -=NN@LIFE=-
Дата кодирования : UTC 2014-04-04 02:44:44
Программа кодирования : mkvmerge v6.8.0 ('Theme for Great Cities') 32bit built on Mar 2 2014 21:27:07
Библиотека кодирования : libebml v1.3.0 + libmatroska v1.4.1

Видео
Идентификатор : 1
Формат : AVC
Формат/Информация : Advanced Video Codec
Профиль формата : High@L4.1
Параметр CABAC формата : Да
Параметр ReFrames формата : 8 кадров
Идентификатор кодека : V_MPEG4/ISO/AVC
Продолжительность : 1 ч. 51 м.
Битрейт : 2690 Кбит/сек
Ширина : 1120 пикселей
Высота : 476 пикселей
Соотношение сторон : 2,35:1
Режим частоты кадров : Постоянный
Частота кадров : 25,000 кадров/сек
Цветовое пространство : YUV
Субдискретизация насыщенности : 4:2:0
Битовая глубина : 8 бит
Тип развёртки : Прогрессивная
Бит/(Пиксели*Кадры) : 0.202
Размер потока : 2,05 Гбайт (70%)
Заголовок : Rip by nnlabetik
Библиотека кодирования : x264 core 142 r2409 d6b4e63
Настройки программы : cabac=1 / ref=8 / deblock=1:-2:-2 / analyse=0x3:0x113 / me=umh / subme=11 / psy=1 / psy_rd=1.00:0.00 / mixed_ref=1 / me_range=32 / chroma_me=1 / trellis=2 / 8x8dct=1 / cqm=0 / deadzone=21,11 / fast_pskip=1 / chroma_qp_offset=-2 / threads=4 / lookahead_threads=1 / sliced_threads=0 / nr=0 / decimate=0 / interlaced=0 / bluray_compat=0 / constrained_intra=0 / bframes=16 / b_pyramid=2 / b_adapt=2 / b_bias=0 / direct=3 / weightb=1 / open_gop=0 / weightp=1 / keyint=250 / keyint_min=25 / scenecut=40 / intra_refresh=0 / rc_lookahead=40 / rc=2pass / mbtree=0 / bitrate=2690 / ratetol=1.0 / qcomp=0.60 / qpmin=0 / qpmax=69 / qpstep=4 / cplxblur=20.0 / qblur=0.5 / vbv_maxrate=50000 / vbv_bufsize=62500 / nal_hrd=none / filler=0 / ip_ratio=1.30 / pb_ratio=1.20 / aq=1:1.00
Язык : French
Default : Да
Forced : Нет

Аудио #1
Идентификатор : 2
Формат : AC-3
Формат/Информация : Audio Coding 3
Расширение режима : CM (complete main)
Параметр Endianness формата : Big
Идентификатор кодека : A_AC3
Продолжительность : 1 ч. 51 м.
Вид битрейта : Постоянный
Битрейт : 192 Кбит/сек
Каналы : 2 канала
Расположение каналов : Front: L R
Частота : 48,0 КГц
Битовая глубина : 16 бит
Метод сжатия : С потерями
Размер потока : 154 Мбайт (5%)
Заголовок : AC3 2.0 @ 192 kbps (Советский Дубляж)
Язык : Russian
Default : Да
Forced : Нет

Аудио #2
Идентификатор : 3
Формат : AC-3
Формат/Информация : Audio Coding 3
Расширение режима : CM (complete main)
Параметр Endianness формата : Big
Идентификатор кодека : A_AC3
Продолжительность : 1 ч. 51 м.
Вид битрейта : Постоянный
Битрейт : 192 Кбит/сек
Каналы : 2 канала
Расположение каналов : Front: L R
Частота : 48,0 КГц
Битовая глубина : 16 бит
Метод сжатия : С потерями
Размер потока : 154 Мбайт (5%)
Заголовок : AC3 2.0 @ 192 kbps (Многоголосый закадровый, НТВ)
Язык : Russian
Default : Нет
Forced : Нет

Аудио #3
Идентификатор : 4
Формат : AC-3
Формат/Информация : Audio Coding 3
Расширение режима : CM (complete main)
Параметр Endianness формата : Big
Идентификатор кодека : A_AC3
Продолжительность : 1 ч. 51 м.
Вид битрейта : Постоянный
Битрейт : 448 Кбит/сек
Каналы : 6 каналов
Расположение каналов : Front: L C R, Side: L R, LFE
Частота : 48,0 КГц
Битовая глубина : 16 бит
Метод сжатия : С потерями
Размер потока : 359 Мбайт (12%)
Заголовок : AC3 5.1 @ 448 kbps (Одноголосый закадровый, В.Штейн)
Язык : Russian
Default : Нет
Forced : Нет

Аудио #4
Идентификатор : 5
Формат : AC-3
Формат/Информация : Audio Coding 3
Расширение режима : CM (complete main)
Параметр Endianness формата : Big
Идентификатор кодека : A_AC3
Продолжительность : 1 ч. 51 м.
Вид битрейта : Постоянный
Битрейт : 192 Кбит/сек
Каналы : 2 канала
Расположение каналов : Front: L R
Частота : 48,0 КГц
Битовая глубина : 16 бит
Метод сжатия : С потерями
Размер потока : 154 Мбайт (5%)
Заголовок : AC3 2.0 @ 192 kbps (Двухголосый закадровый, 1+1)
Язык : Ukrainian
Default : Нет
Forced : Нет

Текст
Идентификатор : 6
Формат : UTF-8
Идентификатор кодека : S_TEXT/UTF8
Идентификатор кодека/Информация : UTF-8 Plain Text
Язык : Russian
Default : Нет
Forced : Нет

Меню
00:00:00.000 : en:Chapter 01
00:08:24.440 : en:Chapter 02
00:15:26.240 : en:Chapter 03
00:24:06.400 : en:Chapter 04
00:36:05.120 : en:Chapter 05
00:46:56.680 : en:Chapter 06
00:56:23.239 : en:Chapter 07
01:04:26.160 : en:Chapter 08
01:13:15.120 : en:Chapter 09
01:25:31.160 : en:Chapter 10
01:32:06.560 : en:Chapter 11
01:43:08.040 : en:Chapter 12


Скриншоты








Великолепная Анжелика / Merveilleuse Angeliquehttp://s43.radikal.ru/i101/1404/a3/19bbbc099a1b.jpgСтрана: Франция, Германия (ФРГ), Италия / Franco London Films
Жанр: мелодрама, приключения, история
Год выпуска: 1965
Продолжительность: 01:40:04

Перевод 1: Профессиональный (полное дублирование) Дублированный (новый)
Перевод 2: Профессиональный (многоголосый закадровый) НТВ
Перевод 3: Профессиональный (двухголосый закадровый) RUSCICO
Перевод 4: Авторский (одноголосый закадровый) Владимир Штейн
Перевод 5: Профессиональный (двухголосый закадровый) украинский (1+1)
Cубтитры: русские
Оригинальная аудиодорожка: французский

Режиссер: Бернар Бордери / Bernard Borderie

В ролях: Мишель Мерсье, Клод Жиро, Жан Рошфор, Жан-Луи Трентиньян, Джулиано Джемма, Клер Морье, Эрнст Шрёдер, Шарль Ренье, Жак Тожа, Франсуа Мэтр, Робер Порт, Дениз Прованс, Ноэль Роквер, Розальба Нери, Элизабет Эрси, Патрик Лемэтр, Джино Мартурано, Жак Иллинг, Анри Коган, Серж Маркан, Надя Барантен

Описание: После того как ее мужа сжигают на костре, Анжелика находит убежище у разбойников, глава которых — друг ее детства Николя. Во время нападения другой банды, Николя вынужден пожертвовать собой, чтобы позволить Анжелике бежать. Судьба вновь благосклонна к ней — Анжелике удается выйти замуж за маркиза де Плесси-Бельера. Она решает проникнуть в Версаль и отомстить королю — убийце мужа…

Качество видео: BDRip-AVC |Angelique: Collection (1964-1968) {5-Disc Edition} Blu-ray 1080p AVC DTS-HD 5.1 HDCLUB|
Формат видео: MKV

Видео: AVC (x264), 1120x476 (2.35:1), ~2685 kbps, 25.000 fps, 0.201 bpp
Аудио 1: AС3, 48 KHz, 2 ch, 192 kbps - (DUB)
Аудио 2: AС3, 48 KHz, 2 ch, 192 kbps - (MVO)
Аудио 3: AС3, 48 KHz, 6 ch, 448 kbps - (DVO)
Аудио 4: AС3, 48 KHz, 6 ch, 448 kbps - (AVO)
Аудио 5: AС3, 48 KHz, 2 ch, 192 kbps - (DVO)
Аудио 6: AС3, 48 KHz, 6 ch, 448 kbps - (ORG) (отдельно)
Формат субтитров: softsub (SRT)



x264|MediaInfo


Общее
Уникальный идентификатор : 204289632941054604396179042280591417363 (0x99B0C08C4E6EBA7194292E1A5C9D6013)
Полное имя : H:\Анжелика. Коллекция_1964-1968.BDRip.(AVC)\2.Великолепная Анжелика_1965\2_Angelique.Collection.BDRip(AVC).mkv
Формат : Matroska
Версия формата : Version 4 / Version 2
Размер файла : 2,91 Гбайт
Продолжительность : 1 ч. 40 м.
Общий поток : 4159 Кбит/сек
Название фильма : Анжелика: Коллекция / Angelique: Collection (1964-1968) -=NN@LIFE=-
Дата кодирования : UTC 2014-03-16 06:40:29
Программа кодирования : mkvmerge v6.8.0 ('Theme for Great Cities') 32bit built on Mar 2 2014 21:27:07
Библиотека кодирования : libebml v1.3.0 + libmatroska v1.4.1

Видео
Идентификатор : 1
Формат : AVC
Формат/Информация : Advanced Video Codec
Профиль формата : Main@L4.1
Параметр CABAC формата : Нет
Параметр ReFrames формата : 8 кадров
Идентификатор кодека : V_MPEG4/ISO/AVC
Продолжительность : 1 ч. 40 м.
Битрейт : 2684 Кбит/сек
Ширина : 1120 пикселей
Высота : 476 пикселей
Соотношение сторон : 2,35:1
Режим частоты кадров : Постоянный
Частота кадров : 25,000 кадров/сек
Цветовое пространство : YUV
Субдискретизация насыщенности : 4:2:0
Битовая глубина : 8 бит
Тип развёртки : Прогрессивная
Бит/(Пиксели*Кадры) : 0.201
Размер потока : 1,82 Гбайт (63%)
Заголовок : Rip by nnlabetik
Библиотека кодирования : x264 core 140 r2377 1ca7bb9
Настройки программы : cabac=0 / ref=8 / deblock=1:-2:-1 / analyse=0:0x111 / me=umh / subme=11 / psy=1 / psy_rd=0.95:0.00 / mixed_ref=0 / me_range=32 / chroma_me=1 / trellis=2 / 8x8dct=0 / cqm=0 / deadzone=21,11 / fast_pskip=1 / chroma_qp_offset=-2 / threads=4 / lookahead_threads=1 / sliced_threads=0 / nr=0 / decimate=1 / interlaced=0 / bluray_compat=0 / constrained_intra=0 / bframes=14 / b_pyramid=2 / b_adapt=2 / b_bias=0 / direct=3 / weightb=0 / open_gop=0 / weightp=1 / keyint=250 / keyint_min=25 / scenecut=0 / intra_refresh=0 / rc_lookahead=40 / rc=2pass / mbtree=0 / bitrate=2684 / ratetol=1.0 / qcomp=0.60 / qpmin=0 / qpmax=69 / qpstep=4 / cplxblur=20.0 / qblur=0.5 / vbv_maxrate=50000 / vbv_bufsize=62500 / nal_hrd=none / filler=0 / ip_ratio=1.30 / pb_ratio=1.20 / aq=1:1.00
Язык : French
Default : Да
Forced : Нет

Аудио #1
Идентификатор : 2
Формат : AC-3
Формат/Информация : Audio Coding 3
Расширение режима : CM (complete main)
Параметр Endianness формата : Big
Идентификатор кодека : A_AC3
Продолжительность : 1 ч. 40 м.
Вид битрейта : Постоянный
Битрейт : 192 Кбит/сек
Каналы : 2 канала
Расположение каналов : Front: L R
Частота : 48,0 КГц
Битовая глубина : 16 бит
Метод сжатия : С потерями
Размер потока : 137 Мбайт (5%)
Заголовок : AC3 2.0 @ 192 kbps (Новый Дубляж)
Язык : Russian
Default : Да
Forced : Нет

Аудио #2
Идентификатор : 3
Формат : AC-3
Формат/Информация : Audio Coding 3
Расширение режима : CM (complete main)
Параметр Endianness формата : Big
Идентификатор кодека : A_AC3
Продолжительность : 1 ч. 40 м.
Вид битрейта : Постоянный
Битрейт : 192 Кбит/сек
Каналы : 2 канала
Расположение каналов : Front: L R
Частота : 48,0 КГц
Битовая глубина : 16 бит
Метод сжатия : С потерями
Размер потока : 137 Мбайт (5%)
Заголовок : AC3 2.0 @ 192 kbps (Многоголосый закадровый, НТВ)
Язык : Russian
Default : Нет
Forced : Нет

Аудио #3
Идентификатор : 4
Формат : AC-3
Формат/Информация : Audio Coding 3
Расширение режима : CM (complete main)
Параметр Endianness формата : Big
Идентификатор кодека : A_AC3
Продолжительность : 1 ч. 40 м.
Вид битрейта : Постоянный
Битрейт : 448 Кбит/сек
Каналы : 6 каналов
Расположение каналов : Front: L C R, Side: L R, LFE
Частота : 48,0 КГц
Битовая глубина : 16 бит
Метод сжатия : С потерями
Размер потока : 321 Мбайт (11%)
Заголовок : AC3 5.1 @ 448 kbps (Двухголосый закадровый, RUSCICO)
Язык : Russian
Default : Нет
Forced : Нет

Аудио #4
Идентификатор : 5
Формат : AC-3
Формат/Информация : Audio Coding 3
Расширение режима : CM (complete main)
Параметр Endianness формата : Big
Идентификатор кодека : A_AC3
Продолжительность : 1 ч. 40 м.
Вид битрейта : Постоянный
Битрейт : 448 Кбит/сек
Каналы : 6 каналов
Расположение каналов : Front: L C R, Side: L R, LFE
Частота : 48,0 КГц
Битовая глубина : 16 бит
Метод сжатия : С потерями
Размер потока : 321 Мбайт (11%)
Заголовок : AC3 5.1 @ 448 kbps (Одноголосый закадровый, В.Штейн)
Язык : Russian
Default : Нет
Forced : Нет

Аудио #5
Идентификатор : 6
Формат : AC-3
Формат/Информация : Audio Coding 3
Расширение режима : CM (complete main)
Параметр Endianness формата : Big
Идентификатор кодека : A_AC3
Продолжительность : 1 ч. 40 м.
Вид битрейта : Постоянный
Битрейт : 192 Кбит/сек
Каналы : 2 канала
Расположение каналов : Front: L R
Частота : 48,0 КГц
Битовая глубина : 16 бит
Метод сжатия : С потерями
Размер потока : 137 Мбайт (5%)
Заголовок : AC3 2.0 @ 192 kbps (Двухголосый закадровый, 1+1)
Язык : Ukrainian
Default : Нет
Forced : Нет

Текст
Идентификатор : 7
Формат : UTF-8
Идентификатор кодека : S_TEXT/UTF8
Идентификатор кодека/Информация : UTF-8 Plain Text
Язык : Russian
Default : Нет
Forced : Нет

Меню
00:00:00.000 : en:Chapter 01
00:06:54.320 : en:Chapter 02
00:12:13.839 : en:Chapter 03
00:18:02.560 : en:Chapter 04
00:26:55.159 : en:Chapter 05
00:37:16.760 : en:Chapter 06
00:48:43.760 : en:Chapter 07
00:59:52.560 : en:Chapter 08
01:09:16.479 : en:Chapter 09
01:18:23.880 : en:Chapter 10
01:25:36.920 : en:Chapter 11
01:33:42.320 : en:Chapter 12


Скриншоты








Анжелика и король / Angйlique et le royhttp://s020.radikal.ru/i719/1404/53/abd98cb3059f.jpgСтрана: Франция, Германия (ФРГ), Италия / Franco London Films
Жанр: мелодрама, приключения, история
Год выпуска: 1965
Продолжительность: 01:40:05

Перевод 1: Профессиональный (полное дублирование) Советский Дубляж + вставки НТВ
Перевод 2: Профессиональный (многоголосый закадровый) НТВ
Перевод 3: Авторский (одноголосый закадровый) Владимир Штейн
Перевод 4: Профессиональный (двухголосый закадровый) украинский (1+1)
Cубтитры: русские
Оригинальная аудиодорожка: французский

Режиссер: Бернар Бордери / Bernard Borderie

В ролях: Мишель Мерсье, Робер Оссейн, Жан Рошфор, Жак Тожа, Сами Фре, Эстелла Блен, Фред Уильямс, Паскуале Мартино, Жан Паредес, Рене Лефевр, Мишель Галабрю, Филипп Лемэр, Энн Смирнер, Кароль Ле Бек, Мишель Томасс, Робер Фавар, Роберто, Клод Жиро, Клер Атана, Жоэлль Бернар, Валери Буажель

Описание: Король Людовик XIV дает Анжелике задание: уговорить персидского посла подписать договор с Францией. Решив, что цель оправдывает средства, она использует все свое очарование. Посол соглашается на сделку, но взамен требует прекрасную Анжелику…

Качество видео: BDRip-AVC |Angelique: Collection (1964-1968) {5-Disc Edition} Blu-ray 1080p AVC DTS-HD 5.1 HDCLUB|
Формат видео: MKV

Видео: AVC (x264), 1120x476 (2.35:1), ~2685 kbps, 25.000 fps, 0.201 bpp
Аудио 1: AС3, 48 KHz, 2 ch, 192 kbps - (DUB)
Аудио 2: AС3, 48 KHz, 2 ch, 192 kbps - (MVO)
Аудио 3: AС3, 48 KHz, 6 ch, 448 kbps - (AVO)
Аудио 4: AС3, 48 KHz, 2 ch, 192 kbps - (DVO)
Аудио 5: AС3, 48 KHz, 6 ch, 448 kbps - (ORG)
Формат субтитров: softsub (SRT)



x264|MediaInfo


Общее
Уникальный идентификатор : 208982606172285998507450465131120205678 (0x9D3895FE1697ACA9B3C59A2C6FEA9F6E)
Полное имя : H:\Анжелика. Коллекция_1964-1968.BDRip.(AVC)\3.Анжелика и король_1965\3_Angelique.Collection.BDRip(AVC).mkv
Формат : Matroska
Версия формата : Version 4 / Version 2
Размер файла : 2,91 Гбайт
Продолжительность : 1 ч. 40 м.
Общий поток : 4159 Кбит/сек
Название фильма : Анжелика: Коллекция / Angйlique: Collection (1964-1968) -=NN@LIFE=-
Дата кодирования : UTC 2014-03-16 07:52:25
Программа кодирования : mkvmerge v6.8.0 ('Theme for Great Cities') 32bit built on Mar 2 2014 21:27:07
Библиотека кодирования : libebml v1.3.0 + libmatroska v1.4.1

Видео
Идентификатор : 1
Формат : AVC
Формат/Информация : Advanced Video Codec
Профиль формата : High@L4.1
Параметр CABAC формата : Да
Параметр ReFrames формата : 8 кадров
Идентификатор кодека : V_MPEG4/ISO/AVC
Продолжительность : 1 ч. 40 м.
Битрейт : 2684 Кбит/сек
Ширина : 1120 пикселей
Высота : 476 пикселей
Соотношение сторон : 2,35:1
Режим частоты кадров : Постоянный
Частота кадров : 25,000 кадров/сек
Цветовое пространство : YUV
Субдискретизация насыщенности : 4:2:0
Битовая глубина : 8 бит
Тип развёртки : Прогрессивная
Бит/(Пиксели*Кадры) : 0.201
Размер потока : 1,82 Гбайт (63%)
Заголовок : Rip by nnlabetik
Библиотека кодирования : x264 core 140 r2377 1ca7bb9
Настройки программы : cabac=1 / ref=8 / deblock=1:-2:-1 / analyse=0x3:0x113 / me=umh / subme=11 / psy=1 / psy_rd=1.00:0.10 / mixed_ref=1 / me_range=32 / chroma_me=1 / trellis=2 / 8x8dct=1 / cqm=0 / deadzone=21,11 / fast_pskip=1 / chroma_qp_offset=-3 / threads=4 / lookahead_threads=1 / sliced_threads=0 / nr=0 / decimate=1 / interlaced=0 / bluray_compat=0 / constrained_intra=0 / bframes=15 / b_pyramid=2 / b_adapt=2 / b_bias=0 / direct=3 / weightb=1 / open_gop=0 / weightp=1 / keyint=250 / keyint_min=25 / scenecut=40 / intra_refresh=0 / rc_lookahead=50 / rc=2pass / mbtree=0 / bitrate=2684 / ratetol=1.0 / qcomp=0.60 / qpmin=0 / qpmax=69 / qpstep=4 / cplxblur=20.0 / qblur=0.5 / vbv_maxrate=50000 / vbv_bufsize=62500 / nal_hrd=none / filler=0 / ip_ratio=1.30 / pb_ratio=1.20 / aq=1:1.00
Язык : French
Default : Да
Forced : Нет

Аудио #1
Идентификатор : 2
Формат : AC-3
Формат/Информация : Audio Coding 3
Расширение режима : CM (complete main)
Параметр Endianness формата : Big
Идентификатор кодека : A_AC3
Продолжительность : 1 ч. 40 м.
Вид битрейта : Постоянный
Битрейт : 192 Кбит/сек
Каналы : 2 канала
Расположение каналов : Front: L R
Частота : 48,0 КГц
Битовая глубина : 16 бит
Метод сжатия : С потерями
Размер потока : 137 Мбайт (5%)
Заголовок : AC3 2.0 @ 192 kbps (Советский Дубляж)
Язык : Russian
Default : Да
Forced : Нет

Аудио #2
Идентификатор : 3
Формат : AC-3
Формат/Информация : Audio Coding 3
Расширение режима : CM (complete main)
Параметр Endianness формата : Big
Идентификатор кодека : A_AC3
Продолжительность : 1 ч. 40 м.
Вид битрейта : Постоянный
Битрейт : 192 Кбит/сек
Каналы : 2 канала
Расположение каналов : Front: L R
Частота : 48,0 КГц
Битовая глубина : 16 бит
Метод сжатия : С потерями
Размер потока : 137 Мбайт (5%)
Заголовок : AC3 2.0 @ 192 kbps (Многоголосый закадровый, НТВ)
Язык : Russian
Default : Нет
Forced : Нет

Аудио #3
Идентификатор : 4
Формат : AC-3
Формат/Информация : Audio Coding 3
Расширение режима : CM (complete main)
Параметр Endianness формата : Big
Идентификатор кодека : A_AC3
Продолжительность : 1 ч. 40 м.
Вид битрейта : Постоянный
Битрейт : 448 Кбит/сек
Каналы : 6 каналов
Расположение каналов : Front: L C R, Side: L R, LFE
Частота : 48,0 КГц
Битовая глубина : 16 бит
Метод сжатия : С потерями
Размер потока : 321 Мбайт (11%)
Заголовок : AC3 5.1 @ 448 kbps (Одноголосый закадровый, В.Штейн)
Язык : Russian
Default : Нет
Forced : Нет

Аудио #4
Идентификатор : 5
Формат : AC-3
Формат/Информация : Audio Coding 3
Расширение режима : CM (complete main)
Параметр Endianness формата : Big
Идентификатор кодека : A_AC3
Продолжительность : 1 ч. 40 м.
Вид битрейта : Постоянный
Битрейт : 192 Кбит/сек
Каналы : 2 канала
Расположение каналов : Front: L R
Частота : 48,0 КГц
Битовая глубина : 16 бит
Метод сжатия : С потерями
Размер потока : 137 Мбайт (5%)
Заголовок : AC3 2.0 @ 192 kbps (Двухголосый закадровый, 1+1)
Язык : Ukrainian
Default : Нет
Forced : Нет

Аудио #5
Идентификатор : 6
Формат : AC-3
Формат/Информация : Audio Coding 3
Расширение режима : CM (complete main)
Параметр Endianness формата : Big
Идентификатор кодека : A_AC3
Продолжительность : 1 ч. 40 м.
Вид битрейта : Постоянный
Битрейт : 448 Кбит/сек
Каналы : 6 каналов
Расположение каналов : Front: L C R, Side: L R, LFE
Частота : 48,0 КГц
Битовая глубина : 16 бит
Метод сжатия : С потерями
Размер потока : 321 Мбайт (11%)
Заголовок : AC3 5.1 @ 448 kbps Оригинальный
Язык : French
Default : Нет
Forced : Нет

Текст
Идентификатор : 7
Формат : UTF-8
Идентификатор кодека : S_TEXT/UTF8
Идентификатор кодека/Информация : UTF-8 Plain Text
Default : Нет
Forced : Нет

Меню
00:00:00.000 : en:Chapter 01
00:08:44.280 : en:Chapter 02
00:19:04.400 : en:Chapter 03
00:24:30.159 : en:Chapter 04
00:33:24.120 : en:Chapter 05
00:39:55.640 : en:Chapter 06
00:45:21.160 : en:Chapter 07
00:54:29.960 : en:Chapter 08
01:04:42.920 : en:Chapter 09
01:13:43.920 : en:Chapter 10
01:22:37.439 : en:Chapter 11
01:33:00.320 : en:Chapter 12


Скриншоты








Неукротимая Анжелика / Indomptable Angйliquehttp://s020.radikal.ru/i722/1404/d3/f50be3dce371.jpgСтрана: Франция, Германия (ФРГ), Италия / Franco London Films
Жанр: мелодрама, приключения, история
Год выпуска: 1967
Продолжительность: 01:22:17

Перевод 1: Профессиональный (полное дублирование) Советский Дубляж + вставки НТВ
Перевод 2: Профессиональный (полное дублирование) Дублированный (новый)
Перевод 3: Профессиональный (многоголосый закадровый) НТВ
Перевод 4: Авторский (одноголосый закадровый) Владимир Штейн
Перевод 5: Профессиональный (двухголосый закадровый) украинский (1+1)
Cубтитры: русские
Оригинальная аудиодорожка: французский

Режиссер: Бернар Бордери / Bernard Borderie

В ролях: Мишель Мерсье, Робер Оссейн, Роже Пиго, Кристиан Роде, Этторе Манни, Бруно Дитрих, Паскуале Мартино, Зигхардт Рупп, Польдо Бенданди, Ренато Де Кармине, Артуро Доминичи, Мино Доро, Паоло Джусти, Жан-Луи Джемма, Габи Мезе, Пауль Мюллер, Жан-Клод Паскаль, Миммо Поли, Жак Санти, Хельмут Шнайдер, Джанни Соларо

Описание: Поиски мужа приводят Анжелику к морскому побережью, где следы Жоффре де Пейрака обрываются… Капитан королевской галеры, пораженный красотой молодой женщины, принуждает ее подняться на борт и сопровождать его в плавании.

Качество видео: BDRip-AVC |Angelique: Collection (1964-1968) {5-Disc Edition} Blu-ray 1080p AVC DTS-HD 5.1 HDCLUB|
Формат видео: MKV

Видео: AVC (x264), 1120x476 (2.35:1), ~2670 kbps, 25.000 fps, 0.200 bpp
Аудио 1: AС3, 48 KHz, 2 ch, 192 kbps - (DUB)
Аудио 2: AС3, 48 KHz, 6 ch, 448 kbps - (DUB)
Аудио 3: AС3, 48 KHz, 2 ch, 192 kbps - (MVO)
Аудио 4: AС3, 48 KHz, 6 ch, 448 kbps - (AVO)
Аудио 5: AС3, 48 KHz, 2 ch, 192 kbps - (DVO)
Аудио 6: AС3, 48 KHz, 6 ch, 448 kbps - (ORG) (отдельно)
Формат субтитров: softsub (SRT)



x264|MediaInfo


Общее
Уникальный идентификатор : 253005070810321457357527207876385668877 (0xBE570112F57FD8558037C2447DD57F0D)
Полное имя : H:\Анжелика. Коллекция_1964-1968.BDRip.(AVC)\4.Неукротимая Анжелика_1967\4_Angelique.Collection.BDRip(AVC).mkv
Формат : Matroska
Версия формата : Version 4 / Version 2
Размер файла : 2,23 Гбайт
Продолжительность : 1 ч. 22 м.
Общий поток : 3885 Кбит/сек
Название фильма : Анжелика: Коллекция / Angйlique: Collection (1964-1968) -=NN@LIFE=-
Дата кодирования : UTC 2014-04-04 04:56:27
Программа кодирования : mkvmerge v6.8.0 ('Theme for Great Cities') 32bit built on Mar 2 2014 21:27:07
Библиотека кодирования : libebml v1.3.0 + libmatroska v1.4.1

Видео
Идентификатор : 1
Формат : AVC
Формат/Информация : Advanced Video Codec
Профиль формата : High@L4.1
Параметр CABAC формата : Да
Параметр ReFrames формата : 8 кадров
Идентификатор кодека : V_MPEG4/ISO/AVC
Продолжительность : 1 ч. 22 м.
Битрейт : 2669 Кбит/сек
Ширина : 1120 пикселей
Высота : 476 пикселей
Соотношение сторон : 2,35:1
Режим частоты кадров : Постоянный
Частота кадров : 25,000 кадров/сек
Цветовое пространство : YUV
Субдискретизация насыщенности : 4:2:0
Битовая глубина : 8 бит
Тип развёртки : Прогрессивная
Бит/(Пиксели*Кадры) : 0.200
Размер потока : 1,49 Гбайт (67%)
Заголовок : Rip by nnlabetik
Библиотека кодирования : x264 core 140 r2377 1ca7bb9
Настройки программы : cabac=1 / ref=8 / deblock=1:-2:-1 / analyse=0x3:0x113 / me=umh / subme=11 / psy=1 / psy_rd=1.00:0.10 / mixed_ref=1 / me_range=32 / chroma_me=1 / trellis=2 / 8x8dct=1 / cqm=0 / deadzone=21,11 / fast_pskip=1 / chroma_qp_offset=-3 / threads=4 / lookahead_threads=1 / sliced_threads=0 / nr=0 / decimate=1 / interlaced=0 / bluray_compat=0 / constrained_intra=0 / bframes=15 / b_pyramid=2 / b_adapt=2 / b_bias=0 / direct=3 / weightb=1 / open_gop=0 / weightp=1 / keyint=250 / keyint_min=25 / scenecut=40 / intra_refresh=0 / rc_lookahead=50 / rc=2pass / mbtree=0 / bitrate=2669 / ratetol=1.0 / qcomp=0.60 / qpmin=0 / qpmax=69 / qpstep=4 / cplxblur=20.0 / qblur=0.5 / vbv_maxrate=50000 / vbv_bufsize=62500 / nal_hrd=none / filler=0 / ip_ratio=1.30 / pb_ratio=1.20 / aq=1:1.00
Язык : French
Default : Да
Forced : Нет

Аудио #1
Идентификатор : 2
Формат : AC-3
Формат/Информация : Audio Coding 3
Расширение режима : CM (complete main)
Параметр Endianness формата : Big
Идентификатор кодека : A_AC3
Продолжительность : 1 ч. 22 м.
Вид битрейта : Постоянный
Битрейт : 192 Кбит/сек
Каналы : 2 канала
Расположение каналов : Front: L R
Частота : 48,0 КГц
Битовая глубина : 16 бит
Метод сжатия : С потерями
Размер потока : 113 Мбайт (5%)
Заголовок : AC3 2.0 @ 192 kbps (Советский Дубляж)
Язык : Russian
Default : Да
Forced : Нет

Аудио #2
Идентификатор : 3
Формат : AC-3
Формат/Информация : Audio Coding 3
Расширение режима : CM (complete main)
Параметр Endianness формата : Big
Идентификатор кодека : A_AC3
Продолжительность : 1 ч. 22 м.
Вид битрейта : Постоянный
Битрейт : 192 Кбит/сек
Каналы : 2 канала
Расположение каналов : Front: L R
Частота : 48,0 КГц
Битовая глубина : 16 бит
Метод сжатия : С потерями
Размер потока : 113 Мбайт (5%)
Заголовок : AC3 2.0 @ 192 kbps (Новый Дубляж)
Язык : Russian
Default : Нет
Forced : Нет

Аудио #3
Идентификатор : 4
Формат : AC-3
Формат/Информация : Audio Coding 3
Расширение режима : CM (complete main)
Параметр Endianness формата : Big
Идентификатор кодека : A_AC3
Продолжительность : 1 ч. 22 м.
Вид битрейта : Постоянный
Битрейт : 192 Кбит/сек
Каналы : 2 канала
Расположение каналов : Front: L R
Частота : 48,0 КГц
Битовая глубина : 16 бит
Метод сжатия : С потерями
Размер потока : 113 Мбайт (5%)
Заголовок : AC3 2.0 @ 192 kbps (Многоголосый закадровый, НТВ)
Язык : Russian
Default : Нет
Forced : Нет

Аудио #4
Идентификатор : 5
Формат : AC-3
Формат/Информация : Audio Coding 3
Расширение режима : CM (complete main)
Параметр Endianness формата : Big
Идентификатор кодека : A_AC3
Продолжительность : 1 ч. 22 м.
Вид битрейта : Постоянный
Битрейт : 448 Кбит/сек
Каналы : 6 каналов
Расположение каналов : Front: L C R, Side: L R, LFE
Частота : 48,0 КГц
Битовая глубина : 16 бит
Метод сжатия : С потерями
Размер потока : 264 Мбайт (12%)
Заголовок : AC3 5.1 @ 448 kbps (Одноголосый закадровый, В.Штейн)
Язык : Russian
Default : Нет
Forced : Нет

Аудио #5
Идентификатор : 6
Формат : AC-3
Формат/Информация : Audio Coding 3
Расширение режима : CM (complete main)
Параметр Endianness формата : Big
Идентификатор кодека : A_AC3
Продолжительность : 1 ч. 22 м.
Вид битрейта : Постоянный
Битрейт : 192 Кбит/сек
Каналы : 2 канала
Расположение каналов : Front: L R
Частота : 48,0 КГц
Битовая глубина : 16 бит
Метод сжатия : С потерями
Размер потока : 113 Мбайт (5%)
Заголовок : AC3 2.0 @ 192 kbps (Двухголосый закадровый, 1+1)
Язык : Ukrainian
Default : Нет
Forced : Нет

Текст
Идентификатор : 7
Формат : UTF-8
Идентификатор кодека : S_TEXT/UTF8
Идентификатор кодека/Информация : UTF-8 Plain Text
Язык : Russian
Default : Нет
Forced : Нет

Меню
00:00:00.000 : en:Chapter 01
00:06:38.120 : en:Chapter 02
00:16:12.680 : en:Chapter 03
00:23:33.680 : en:Chapter 04
00:28:25.119 : en:Chapter 05
00:37:32.000 : en:Chapter 06
00:48:06.680 : en:Chapter 07
00:57:46.640 : en:Chapter 08
01:04:30.640 : en:Chapter 09
01:10:54.560 : en:Chapter 10
01:15:31.200 : en:Chapter 11
01:19:19.479 : en:Chapter 12


Скриншоты








Анжелика и султан / Angйlique et le sultanhttp://i019.radikal.ru/1404/e8/16421e010ff5.jpgСтрана: Франция, Германия (ФРГ), Италия / Franco London Films
Жанр: мелодрама, приключения, история
Год выпуска: 1968
Продолжительность: 01:37:41

Перевод 1: Профессиональный (полное дублирование) Советский Дубляж + вставки НТВ
Перевод 2: Профессиональный (многоголосый закадровый) НТВ
Перевод 3: Авторский (одноголосый закадровый) Владимир Штейн
Перевод 4: Профессиональный (двухголосый закадровый) украинский (1+1)
Cубтитры: русские
Оригинальная аудиодорожка: французский

Режиссер: Бернар Бордери / Bernard Borderie

В ролях: Мишель Мерсье, Робер Оссейн, Жан-Клод Паскаль, Жак Санти, Хельмут Шнайдер, Роже Пиго, Этторе Манни, Эрно Криза, Бруно Дитрих, Паскуале Мартино, Ренато Де Кармине, Анри Коган, Али Бен Айед, Клаудио Превитера, Габи Мезе, Вилма Линдамар, Маня Голец, Мохамед Кука, Артуро Доминичи, Мино Доро, Марио Меникони

Описание: Анжелика оказывается на Востоке. Захваченная в плен воинами арабского султана, она попадает к нему в гарем, но в очередной раз доказывает свою преданность и любовь к мужу. Единственное чувство, согревающее сердце Анжелики, — это надежда вновь обрести своего возлюбленного…

Качество видео: BDRip-AVC |Angelique: Collection (1964-1968) {5-Disc Edition} Blu-ray 1080p AVC DTS-HD 5.1 HDCLUB|
Формат видео: MKV

Видео: AVC (x264), 1120x476 (2.35:1), ~2785 kbps, 24.000 fps, 0.218 bpp
Аудио 1: AС3, 48 KHz, 2 ch, 192 kbps - (DUB)
Аудио 2: AС3, 48 KHz, 2 ch, 192 kbps - (MVO)
Аудио 3: AС3, 48 KHz, 6 ch, 448 kbps - (AVO)
Аудио 4: AС3, 48 KHz, 2 ch, 192 kbps - (DVO)
Аудио 5: AС3, 48 KHz, 6 ch, 448 kbps - (ORG)
Формат субтитров: softsub (SRT)



x264|MediaInfo


Общее
Уникальный идентификатор : 178015254764074336111298358592023794779 (0x85EC7DB042EA4992833A36BF359F945B)
Полное имя : H:\Анжелика. Коллекция_1964-1968.BDRip.(AVC)\5.Анжелика и султан_1968\5_Angelique.Collection.BDRip(AVC).mkv
Формат : Matroska
Версия формата : Version 4 / Version 2
Размер файла : 2,91 Гбайт
Продолжительность : 1 ч. 37 м.
Общий поток : 4259 Кбит/сек
Название фильма : Анжелика: Коллекция / Angйlique: Collection (1964-1968) -=NN@LIFE=-
Дата кодирования : UTC 2014-04-04 09:34:13
Программа кодирования : mkvmerge v6.8.0 ('Theme for Great Cities') 32bit built on Mar 2 2014 21:27:07
Библиотека кодирования : libebml v1.3.0 + libmatroska v1.4.1

Видео
Идентификатор : 1
Формат : AVC
Формат/Информация : Advanced Video Codec
Профиль формата : High@L4.1
Параметр CABAC формата : Да
Параметр ReFrames формата : 8 кадров
Идентификатор кодека : V_MPEG4/ISO/AVC
Продолжительность : 1 ч. 37 м.
Битрейт : 2785 Кбит/сек
Ширина : 1120 пикселей
Высота : 476 пикселей
Соотношение сторон : 2,35:1
Режим частоты кадров : Постоянный
Частота кадров : 24,000 кадра/сек
Цветовое пространство : YUV
Субдискретизация насыщенности : 4:2:0
Битовая глубина : 8 бит
Тип развёртки : Прогрессивная
Бит/(Пиксели*Кадры) : 0.218
Размер потока : 1,84 Гбайт (63%)
Заголовок : Rip by nnlabetik
Библиотека кодирования : x264 core 140 r2377 1ca7bb9
Настройки программы : cabac=1 / ref=8 / deblock=1:-2:-1 / analyse=0x3:0x113 / me=umh / subme=11 / psy=1 / psy_rd=1.00:0.10 / mixed_ref=1 / me_range=32 / chroma_me=1 / trellis=2 / 8x8dct=1 / cqm=0 / deadzone=21,11 / fast_pskip=1 / chroma_qp_offset=-3 / threads=4 / lookahead_threads=1 / sliced_threads=0 / nr=0 / decimate=1 / interlaced=0 / bluray_compat=0 / constrained_intra=0 / bframes=15 / b_pyramid=2 / b_adapt=2 / b_bias=0 / direct=3 / weightb=1 / open_gop=0 / weightp=1 / keyint=240 / keyint_min=24 / scenecut=40 / intra_refresh=0 / rc_lookahead=50 / rc=2pass / mbtree=0 / bitrate=2785 / ratetol=1.0 / qcomp=0.60 / qpmin=0 / qpmax=69 / qpstep=4 / cplxblur=20.0 / qblur=0.5 / vbv_maxrate=50000 / vbv_bufsize=62500 / nal_hrd=none / filler=0 / ip_ratio=1.30 / pb_ratio=1.20 / aq=1:1.00
Язык : French
Default : Да
Forced : Нет

Аудио #1
Идентификатор : 2
Формат : AC-3
Формат/Информация : Audio Coding 3
Расширение режима : CM (complete main)
Параметр Endianness формата : Big
Идентификатор кодека : A_AC3
Продолжительность : 1 ч. 37 м.
Вид битрейта : Постоянный
Битрейт : 192 Кбит/сек
Каналы : 2 канала
Расположение каналов : Front: L R
Частота : 48,0 КГц
Битовая глубина : 16 бит
Метод сжатия : С потерями
Размер потока : 134 Мбайт (5%)
Заголовок : AC3 2.0 @ 192 kbps (Советский Дубляж)
Язык : Russian
Default : Да
Forced : Нет

Аудио #2
Идентификатор : 3
Формат : AC-3
Формат/Информация : Audio Coding 3
Расширение режима : CM (complete main)
Параметр Endianness формата : Big
Идентификатор кодека : A_AC3
Продолжительность : 1 ч. 37 м.
Вид битрейта : Постоянный
Битрейт : 192 Кбит/сек
Каналы : 2 канала
Расположение каналов : Front: L R
Частота : 48,0 КГц
Битовая глубина : 16 бит
Метод сжатия : С потерями
Размер потока : 134 Мбайт (5%)
Заголовок : AC3 2.0 @ 192 kbps (Многоголосый закадровый, НТВ)
Язык : Russian
Default : Нет
Forced : Нет

Аудио #3
Идентификатор : 4
Формат : AC-3
Формат/Информация : Audio Coding 3
Расширение режима : CM (complete main)
Параметр Endianness формата : Big
Идентификатор кодека : A_AC3
Продолжительность : 1 ч. 37 м.
Вид битрейта : Постоянный
Битрейт : 448 Кбит/сек
Каналы : 6 каналов
Расположение каналов : Front: L C R, Side: L R, LFE
Частота : 48,0 КГц
Битовая глубина : 16 бит
Метод сжатия : С потерями
Размер потока : 313 Мбайт (11%)
Заголовок : AC3 5.1 @ 448 kbps (Одноголосый закадровый, В.Штейн)
Язык : Russian
Default : Нет
Forced : Нет

Аудио #4
Идентификатор : 5
Формат : AC-3
Формат/Информация : Audio Coding 3
Расширение режима : CM (complete main)
Параметр Endianness формата : Big
Идентификатор кодека : A_AC3
Продолжительность : 1 ч. 37 м.
Вид битрейта : Постоянный
Битрейт : 192 Кбит/сек
Каналы : 2 канала
Расположение каналов : Front: L R
Частота : 48,0 КГц
Битовая глубина : 16 бит
Метод сжатия : С потерями
Размер потока : 134 Мбайт (5%)
Заголовок : AC3 2.0 @ 192 kbps (Двухголосый закадровый, 1+1)
Язык : Ukrainian
Default : Нет
Forced : Нет

Аудио #5
Идентификатор : 6
Формат : AC-3
Формат/Информация : Audio Coding 3
Расширение режима : CM (complete main)
Параметр Endianness формата : Big
Идентификатор кодека : A_AC3
Продолжительность : 1 ч. 37 м.
Вид битрейта : Постоянный
Битрейт : 448 Кбит/сек
Каналы : 6 каналов
Расположение каналов : Front: L C R, Side: L R, LFE
Частота : 48,0 КГц
Битовая глубина : 16 бит
Метод сжатия : С потерями
Размер потока : 313 Мбайт (11%)
Заголовок : AC3 5.1 @ 448 kbps (Оригинальный)
Язык : French
Default : Нет
Forced : Нет

Текст
Идентификатор : 7
Формат : UTF-8
Идентификатор кодека : S_TEXT/UTF8
Идентификатор кодека/Информация : UTF-8 Plain Text
Язык : Russian
Default : Нет
Forced : Нет

Меню
00:00:00.000 : en:Chapter 01
00:03:06.833 : en:Chapter 02
00:13:23.666 : en:Chapter 03
00:21:02.708 : en:Chapter 04
00:31:00.625 : en:Chapter 05
00:38:14.791 : en:Chapter 06
00:43:27.833 : en:Chapter 07
00:59:33.541 : en:Chapter 08
01:08:17.583 : en:Chapter 09
01:17:19.916 : en:Chapter 10
01:23:17.916 : en:Chapter 11
01:32:15.583 : en:Chapter 12


Скриншоты




Раздача от: http://s58.radikal.ru/i162/1309/d1/f0af094af92d.gif nnlabetik
Скриншоты
Похожие файлы
Загрузка / Обновление
КатегорияАнтология RSS лента
Просмотров678 раз (a)
Взят4 раз (a)
Файлы8
Размер14.78 GB (15,869,684,730 байт)
Добавлен
РаздалViKa  (Искать торренты)
Участники
Участники - Загрузка / Обновление
Просматривают Просматривают Загрузка...

-†- ¿? -†-
« Предыдущая - † Страница † - Следующая »

:: Список Комментариев
Нет комментариев.

 Нет комментариев
Вам запрещенно редактировать, создать или удалять комментарии.
shpv© 2007-2014
Страничка сформирована за 1.117 секунд.
Яндекс.Метрика Rambler's Top100