скачать торрент трекер Friends
 
 Главная  •  Торренты  •  Новые релизы  •  Форум  •   •  Персоны кино  •  Правила  •  ЧаВо

Язык интерфейса
Язык интерфейса:


Привет, Гость
[15] из [15]
Введите Логин:
Введите Пароль:
Регистрация
Восстановить Пароль

Линки
АнекдотыБанкоматВсе теги / меткиДополнительные услугиТехподдержка

Главное Меню
 Главная Торренты Релизы за сегодня Персоны кино Запросы / Предложения (3) Правила ЧаВо Проверка BB кодов Топ 10 Архив новостей Прошлые опросы Форматы файлов Группы Последние комментарии Техподдержка

:: Детали раздачи
Торрент раздача является мультитрекерной — учтите, количество раздающих не будет совпадать с количеством участников на сайте (скачивание на клиентской стороне зависит от настроек uTorrent клиент программы, настройки -> Включить DHT, Обмен пирами и Поиск лок-х пиров).
Если висит надпись, пиры по нулям - не бойтесь, возможность скачать повторно торрент раздачу - есть. Попробуйте, в случае отказа - прокоментируйте или нажмите на "Позвать скачавших".

Top Gear - 12 сезон, 8 эпизод / Top Gear Season 12 Episode 8 [2008 г., Автопередача, TVRip] - H.264 High Quality

Скачать
Магнет
ПомощьКак скачать раздачу
Поделиться
Теги / Меткиавтопередача
Постер
ОписаниеГод выпуска: 2008
Страна: Великобритания
Жанр: Автопередача
Продолжительность: 1:13:00
Перевод: Отсутствует
Русские субтитры: нет

В ролях: Jeremy Clarkson, Richard Hammond, James May

Описание: Jeremy Clarkson, Richard Hammond and James May round off the current series with one of the most spectacular road trips they have ever attempted. Arriving in Vietnam, they have to travel the entire length of the country in just eight days. But first they have to buy some suitable transport for the trip, and despite having several million Dong in their pockets, this proves to be rather more difficult than they expected, especially in one of the most expensive car markets in the world.

---
edit: Так как раздача разошлась по первым сидам, теперь скорость будет в норме.
---

Это лучшая раздача данной серии, которая есть или будет в обозримом будущем, так как революционный кодек x264 и высокий битрейт обеспечивают качество лучше DVD. Так что смысл в раздаче есть, и повтором она не является.

Это последний Top Gear в этом году, и нового не будет очень долго. А лучшей автопередачи в мире пока что нет. Вот клонируют Кларксона, может быть будет.

---

Доп. информация:

Complete name : C:\Top.Gear.S12E08.x264-Moto.mp4
Format : MPEG-4
Format profile : Base Media
Codec ID : isom
File size : 913 MiB
Duration : 1h 13mn
Overal bit rate : 1735 Kbps
Encoded date : UTC 2008-12-27 22:25:17
Tagged date : UTC 2008-12-27 22:25:17

Детальная информация о видео:

Format : AVC
Format/Info : Advanced Video Codec
Format profile : High@L4.1
Format settings, CABAC : Yes
Format settings, ReFrames : 3
Codec ID : avc1
Duration : 1h 13mn
Bit rate mode : VBR
Bit rate : 1600 Kbps
Maximum bit rate : 6963 Kbps
Width : 704 pixels
Height : 400 pixels
Display aspect ratio : 16/9
Frame rate mode : CFR
Frame rate : 25.000 fps
Colorimetry : 4:2:0
Scan type : Progressive
Bits/(Pixel*Frame) : 0.227
Stream size : 842 MiB
Encoded date : UTC 2008-12-27 21:35:12
Tagged date : UTC 2008-12-27 22:25:56

Детальная информация о звуке:

Format : AAC
Format/Info : Advanced Audio Codec
Format version : Version 4
Format profile : LC
Format settings, SBR : No
Duration : 1h 13mn
Bit rate mode : VBR
Bit rate : 132.3 Kbps
Maximum bit rate : 149 Kbps
Channel(s) : 2 channels
Channel positions : L R
Sampling rate : 48.0 KHz
Resolution : 16 bits
Stream size : 69.1 MiB
Encoded date : UTC 2008-12-27 22:25:53
Tagged date : UTC 2008-12-27 22:25:56

---

Качество: TVRip
Формат: MP4
Видео кодек: H.264
Аудио кодек: AAC
Видео: 704x400, 25.0 fps, 1600-7000 kbps, x264, high quality
Аудио: English, AAC, 48 kHz stereo, 132-150 kbps

Скриншоты
Похожие файлы
Загрузка / Обновление
КатегорияРазное / Прочее RSS лента
Просмотров133 раз (a)
Взят0 раз (a)
Файлы1
Размер913.47 MB (957,846,019 байт)
Добавлен
РаздалViKa  (Искать торренты)
Участники
Участники - Загрузка / Обновление
Просматривают Просматривают Загрузка...

-†- ¿? -†-
« Предыдущая - † Страница † - Следующая »

:: Список Комментариев
Нет комментариев.

 Нет комментариев
Вам запрещенно редактировать, создать или удалять комментарии.
shpv© 2007-2014
Страничка сформирована за 0.132 секунд.
Яндекс.Метрика Rambler's Top100