скачать торрент трекер Friends
 
 Главная  •  Торренты  •  Новые релизы  •  Форум  •   •  Персоны кино  •  Правила  •  ЧаВо

Язык интерфейса
Язык интерфейса:


Привет, Гость
[15] из [15]
Введите Логин:
Введите Пароль:
Регистрация
Восстановить Пароль

Линки
АнекдотыБанкоматВсе теги / меткиДополнительные услугиТехподдержка

Главное Меню
 Главная Торренты Релизы за сегодня Персоны кино Запросы / Предложения (3) Правила ЧаВо Проверка BB кодов Топ 10 Архив новостей Прошлые опросы Форматы файлов Группы Последние комментарии Техподдержка

:: Детали раздачи
Торрент раздача является мультитрекерной — учтите, количество раздающих не будет совпадать с количеством участников на сайте (скачивание на клиентской стороне зависит от настроек uTorrent клиент программы, настройки -> Включить DHT, Обмен пирами и Поиск лок-х пиров).
Если висит надпись, пиры по нулям - не бойтесь, возможность скачать повторно торрент раздачу - есть. Попробуйте, в случае отказа - прокоментируйте или нажмите на "Позвать скачавших".

Белый человек / Серии: 1-4 из 4 (Александр Мохов)

Скачать
Магнет
ПомощьКак скачать раздачу
Поделиться
Теги / Меткибоевик, драма
Постер
ОписаниеГод выпуска: 2012
Производство: Кинокомпания "Прорыв"
Жанр: боевик, драма
Продолжительность: ~0:45:00 серия
Субтитры: нет

Режиссёр: Александр Мохов

В ролях: Сергей Плотников, Александр Лазарев (младший), Анастасия Бусыгина, Захар Хунгуреев, Андрей Тартаков, Николай Денисов, Александр Мохов, Нина Архипова, Виктор Супрун

Описание: Федор Ильин (Сергей Плотников) - отставной офицер, служивший в горячих точках, после долгого отсутствия возвращается к себе домой в небольшой провинциальный город. Ильин совершенно одинок, а дом, в котором он живёт, подлежит сносу. Его соседи - гастарбайтеры: в одной из квартир живёт Закир (Захар Хунгуреев), предприимчивый молодой парень, работающий дворником, и его сестра Лейла (Анастасия Бусыгина), бывший врач, а ныне - санитарка в больнице… Как-то раз в автосервис, в котором работает Ильин, приезжает бизнесмен - уроженец одной из республик бывшего СССР - с просьбой отремонтировать ему раритетный автомобиль. Ильин, прошедший Афганистан и побывавший там в плену, теперь не очень благосклонно относится к выходцам с Востока. Поэтому он грубо отказывает бизнесмену, после чего Федора увольняют с работы. Единственная ценность, которая у него осталась - это старый раритетный автомобиль, подаренный его деду маршалом Рокоссовским. Ильин каждый день бережно возится со своей машиной и очень дорожит ею. Но однажды его сосед Закир, решив легко заработать, проникает в гараж и ворует новые колеса, купленные Ильиным. Он относит колеса в шиномонтаж, своему приятелю Шубину, который, в свою очередь, дарит их своему старому знакомому Курту (Александр Лазарев) - лидеру местной националистической группировки, замешанной в организации погромов. Закир вновь приходит в гараж Ильина за оставшимися колесами, где его ловит хозяин. В этот момент у Фёдора начинается приступ, вызванный последствиями плена. Закир бежит за помощью к сестре... Лейла оказывает необходимую медицинскую помощь, а затем ставит брату ультиматум - вернуть всё похищенное Ильину, или она уйдет из дома. Закир ночью пробирается в промзону, снимает колеса с машины Курта и возвращает их Ильину... Рассвирепевший Курт в поисках Закира, приезжает во двор к Ильину и устраивает там погром. Лейла, вернувшись домой, бросается на выручку землякам. Узнав, что она сестра Закира, Курт берет ее в заложники. Увидев это, Ильин пытается помочь Лейле. Освободит ли он девушку? И как дальше будут развиваться события в этом провинциальном городе? Удастся ли местным жителям найти понимание с приезжими и, тем самым, решить национальный вопрос?

Все раздачи сериала / Сэмпл

Качество: DVB
Формат: MPEG-PS
Видео кодек: MPEG2
Аудио кодек: MPEG1 Layer 2
Видео: MPEG 2, 720x576 (4:3), 25.000 fps, 15.0 Mbps (0.496 bit/pixel)
Аудио: MPEG1 Layer 2, 48.0 KHz, 2 ch, 192 Kbps, CBR





MediaInfo


ОбщееПолное имя : H:\Раздачи\Белый человек\Белый человек.01.mpgФормат : MPEG-PSРазмер файла : 1,73 ГбайтПродолжительность : 45 м.Режим общего битрейта : ПеременныйОбщий поток : 5442 Кбит/секБиблиотека кодирования : (c) 1998-2011 Womble Multimedia, Inc. / MPEG Video Wizard DVD 5.0.1.100 (03/2011) / Dec 19 2011

ВидеоИдентификатор : 224 (0xE0)Формат : MPEG VideoВерсия формата : Version 2Профиль формата : Main@MainПараметр BVOP формата : ДаПараметр матрицы формата : ВыборочнаяПараметр GOP формата : M=3, N=24Продолжительность : 45 м.Вид битрейта : ПеременныйБитрейт : 5142 Кбит/секМаксимальный битрейт : 15,0 Мбит/секШирина : 720 пикселейВысота : 576 пикселейСоотношение сторон : 4:3Частота кадров : 25,000 кадров/секСтандарт вещания : PALЦветовое пространство : YUVСубдискретизация насыщенности : 4:2:0Битовая глубина : 8 битТип развёртки : ЧересстрочнаяПорядок развёртки : Верхнее поле первоеМетод сжатия : С потерямиБит/(Пиксели*Кадры) : 0.496Размер потока : 1,64 Гбайт (94%)Библиотека кодирования : (c) 1998-2011 Womble Multimedia, Inc. / MPEG Video Wizard DVD 5.0.1.100 (03/2011) / Dec 19 2011

АудиоИдентификатор : 192 (0xC0)Формат : MPEG AudioВерсия формата : Version 1Профиль формата : Layer 2Продолжительность : 45 м.Вид битрейта : ПостоянныйБитрейт : 192 Кбит/секКаналы : 2 каналаЧастота : 48,0 КГцМетод сжатия : С потерямиЗадержка видео : -40 мс.Размер потока : 62,6 Мбайт (4%)

Меню



Скриншоты
http://i28.fastpic.ru/big/2012/0224/d2/48e6a73916c63150c656716ec487c2d2.png
http://i27.fastpic.ru/big/2012/0224/2f/dc4bad486772bce9b1f4b1fd0ac4be2f.png
http://i28.fastpic.ru/big/2012/0224/df/89cb0f1c5d255cf4542ba066a966e2df.png
http://i30.fastpic.ru/big/2012/0224/ba/1a338f0fcd182aae01179d6a48c63eba.png


http://i28.fastpic.ru/big/2012/0224/05/69402fd4943873dc2143706f42ac5505.png
http://i30.fastpic.ru/big/2012/0224/50/083d546a61b4b276c5b9eab1406b4950.png
http://i29.fastpic.ru/big/2012/0224/c0/80a8aad927d45f7df7fae48ad099f8c0.png
http://i31.fastpic.ru/big/2012/0224/8a/e61bab11df71cbb881fae4df69915f8a.png
Скриншоты
Похожие файлы
Загрузка / Обновление
КатегорияСериалы RSS лента
Просмотров108 раз (a)
Взят1 раз (a)
Файлы4
Размер6.83 GB (7,328,755,712 байт)
Добавлен
РаздалViKa  (Искать торренты)
Участники
Участники - Загрузка / Обновление
Просматривают Просматривают Загрузка...

-†- ¿? -†-
« Предыдущая - † Страница † - Следующая »

:: Список Комментариев
Нет комментариев.

 Нет комментариев
Вам запрещенно редактировать, создать или удалять комментарии.
shpv© 2007-2014
Страничка сформирована за 0.059 секунд.
Яндекс.Метрика Rambler's Top100