скачать торрент трекер Friends
 
 Главная  •  Торренты  •  Новые релизы  •  Форум  •   •  Персоны кино  •  Правила  •  ЧаВо

Язык интерфейса
Язык интерфейса:


Привет, Гость
[15] из [15]
Введите Логин:
Введите Пароль:
Регистрация
Восстановить Пароль

Линки
АнекдотыБанкоматВсе теги / меткиДополнительные услугиТехподдержка

Главное Меню
 Главная Торренты Релизы за сегодня Персоны кино Запросы / Предложения (3) Правила ЧаВо Проверка BB кодов Топ 10 Архив новостей Прошлые опросы Форматы файлов Группы Последние комментарии Техподдержка

:: Детали раздачи
Торрент раздача является мультитрекерной — учтите, количество раздающих не будет совпадать с количеством участников на сайте (скачивание на клиентской стороне зависит от настроек uTorrent клиент программы, настройки -> Включить DHT, Обмен пирами и Поиск лок-х пиров).
Если висит надпись, пиры по нулям - не бойтесь, возможность скачать повторно торрент раздачу - есть. Попробуйте, в случае отказа - прокоментируйте или нажмите на "Позвать скачавших".

Вероника. Потерянное счастье / Серии: 01-16 из 16 (Мирослав Малич)

Скачать
Магнет
ПомощьКак скачать раздачу
Поделиться
Теги / Меткимелодрама
Постер
ОписаниеГод выпуска: 2012
Производство: Кинокомпания Русское
Жанр: Мелодрама
Продолжительность: ~0:43:00 серия
Субтитры: Отсутствуют

Режиссёр: Мирослав Малич

В ролях: Наталья Бардо, Александр Дьяченко, Сергей Жигунов, Мария Машкова, Ольга Волкова, Владимир Носик, Виталий Альшанский, Анатолий Журавлев, Анатолий Лобоцкий, Митя Лабуш, Амаду Мамадаков, Ирина Ефремова и другие.

Описание: Вероника Серова – дочь талантливого ученого и первая красавица небольшого провинциального городка Зеленогорска. Много лет девушка росла без печали и забот, соседские мальчишки наперебой сражались за ее внимание и любовь, и все прочили гордой красавице счастливое будущее. Но трагическое событие переворачивает судьбу Вероники. Внезапно она остается один на один с суровой взрослой жизнью. В паутине интриг, обмана и предательства ей придется научиться справляться с трудностями, переживать потери и бороться за себя и свою любовь…

Все раздачи сериала: http://rutracker.org/forum/tracker.php?nm=%C2%E5%F0%EE%ED%E8%EA%E0
Сэмпл: http://multi-up.com/841670

Доп. информация: Релиз - http://s49.radikal.ru/i126/1005/66/41ae5e297779.jpg http://i2.imageban.ru/out/2012/11/20/e578a357671f0643cf4662832e92df53.png

http://i43.fastpic.ru/big/2012/0921/e9/90d4ee0bff997b63269d9d4b002997e9.jpg
Рип чистый (Прямой поток). Без посторонних надписей. Выкладывается как есть.

Качество: HDTV 1080i
Контейнер: TS
Видео кодек: AVC
Аудио кодек: AC3
Видео: 1920x1080 (16:9) 25.000 fps 7 856 Kbps, 0.151 bit/pixel
Аудио: MPEG Audio 48000Hz stereo 192 Кбит/сек

Скриншоты
http://i52.fastpic.ru/thumb/2013/0311/f6/c7aa3878be2a4e156078dddfba81dcf6.jpeg http://i52.fastpic.ru/thumb/2013/0311/90/853e5276434bfa0251c0e8ea3ae0c590.jpeg http://i52.fastpic.ru/thumb/2013/0311/75/b4be36fbbc81c09271d42974e48b9f75.jpeg
http://i52.fastpic.ru/thumb/2013/0311/9e/2dcbfbbcfc84322212ffd9d10aed969e.jpeg http://i52.fastpic.ru/thumb/2013/0311/8d/8bd4358d651c8f6cc969a7fd0eaf9a8d.jpeg http://i52.fastpic.ru/thumb/2013/0311/f7/541744f4b15924cbf2237ca5722ecff7.jpeg


MI


GeneralID : 1 (0x1)Complete name : N:\ВЫКЛАДКА\HDTV\Сериалы\Вероника. Потерянное счастье (2012, Мелодрама, HDTV) (MYDIMKA)\01 серия.tsFormat : MPEG-TSFile size : 2.74 GiBDuration : 46mn 20sOverall bit rate mode : VariableOverall bit rate : 8 456 Kbps

VideoID : 2911 (0xB5F)Menu ID : 1 (0x1)Format : AVCFormat/Info : Advanced Video CodecFormat profile : High@L4.0Format settings, CABAC : YesFormat settings, ReFrames : 3 framesCodec ID : 27Duration : 46mn 20sBit rate : 7 844 KbpsWidth : 1 920 pixelsHeight : 1 080 pixelsDisplay aspect ratio : 16:9Frame rate : 25.000 fpsColor space : YUVChroma subsampling : 4:2:0Bit depth : 8 bitsScan type : MBAFFBits/(Pixel*Frame) : 0.151Stream size : 2.54 GiB (93%)

AudioID : 2912 (0xB60)Menu ID : 1 (0x1)Format : MPEG AudioFormat version : Version 1Format profile : Layer 2Codec ID : 3Duration : 46mn 20sBit rate mode : ConstantBit rate : 192 KbpsChannel(s) : 2 channelsSampling rate : 48.0 KHzCompression mode : LossyStream size : 63.6 MiB (2%)Language : Russian



Внимание! Раздача ведётся путём добавления новых выпусков
Внимание! Раздача ведётся путём добавления новых выпусков; при каждом добавлении создётся новый торрент. Чтобы начать докачку нового выпуска, пользователям необходимо сделать следующее:
(1) остановить скачивание,
(2) удалить старый торрент у себя из клиента (старые выпуски удалять не надо),
(3) скачать новый торрент и запустить его у себя в клиенте вместо старого, при этом указать клиенту путь в старую папку куда и должно происходить скачивание новых выпусков.
Ваш клиент при этом должен произвести хеширование (проверку) старой папки (если не производит сам - помогите ему сделать это), и будет докачивать только те выпуски которых у вас ещё нет. Старые выпуски при этом не удаляются, а продолжают раздаваться!
Eсли вы уже удалили старые выпуски, то предотвратить повторную закачку старых выпусков можно, отжав галочку в соответсвующих местах при запуске нового торрента. По возможности, желательно не удалять старые выпуски как можно дольше чтобы релизёр не столько продолжал раздавать старые выпуски, а смог сконцентрироваться на новых.
Похожие файлы
Загрузка / Обновление
КатегорияСериалы RSS лента
Просмотров115 раз (a)
Взят2 раз (a)
Файлы16
Размер43.23 GB (46,420,817,872 байт)
Добавлен
РаздалViKa  (Искать торренты)
Участники
Участники - Загрузка / Обновление
Просматривают Просматривают Загрузка...

-†- ¿? -†-
« Предыдущая - † Страница † - Следующая »

:: Список Комментариев
Нет комментариев.

 Нет комментариев
Вам запрещенно редактировать, создать или удалять комментарии.
shpv© 2007-2014
Страничка сформирована за 0.105 секунд.
Яндекс.Метрика Rambler's Top100