скачать торрент трекер Friends
 
 Главная  •  Торренты  •  Новые релизы  •  Форум  •   •  Персоны кино  •  Правила  •  ЧаВо

Язык интерфейса
Язык интерфейса:


Привет, Гость
[15] из [15]
Введите Логин:
Введите Пароль:
Регистрация
Восстановить Пароль

Линки
АнекдотыБанкоматВсе теги / меткиДополнительные услугиТехподдержка

Главное Меню
 Главная Торренты Релизы за сегодня Персоны кино Запросы / Предложения (3) Правила ЧаВо Проверка BB кодов Топ 10 Архив новостей Прошлые опросы Форматы файлов Группы Последние комментарии Техподдержка

:: Детали раздачи
Торрент раздача является мультитрекерной — учтите, количество раздающих не будет совпадать с количеством участников на сайте (скачивание на клиентской стороне зависит от настроек uTorrent клиент программы, настройки -> Включить DHT, Обмен пирами и Поиск лок-х пиров).
Если висит надпись, пиры по нулям - не бойтесь, возможность скачать повторно торрент раздачу - есть. Попробуйте, в случае отказа - прокоментируйте или нажмите на "Позвать скачавших".

Кремень / Серии: 1-4 из 4 (Владимир Епифанцев, Александр Аншютц) [2012, Россия, боевик, криминал, детектив, DVD9] R5 Original Rus

Скачать
Магнет
ПомощьКак скачать раздачу
Поделиться
Теги / Меткибоевик, криминал, детектив
Описаниеhttp://i34.fastpic.ru/big/2012/0513/49/8cbdf8a3bd260ad903e293c366543d49.png

Страна: Россия
Студия: Тримира, ДТ Продакшн
Жанр: боевик, криминал, детектив
Год выпуска: 2012
Дата выхода DVD: 22 мая 2012, «Парадиз Медиа»
Продолжительность: 200 мин.
Перевод: Оригинал [Лицензия]
Cубтитры: нет
Оригинальная аудиодорожка: русский

Режиссер: Владимир Епифанцев, Александр Аншютц

В ролях: Владимир Епифанцев, Павел Климов, Анастасия Веденская, Сергей Векслер, Иван Краско, Юрий Чурсин, Эдуард Федашко, Сергей Мурзин, Михаил Сидаш

Описание: Приехав, в небольшой российский городок, чтобы навестить старого боевого товарища, майор краповых беретов Шаманов становится свидетелем страшных событий — местное население, простые люди, лишены прав, обесчещены, их достоинство растоптано. Шаманову остается либо пройти мимо, закрыв глаза, либо начать действовать, противопоставив себя порочной властной системе, годами оттачиваемой и набравшей смертельную силу…

Бонусы: Нет

http://i8.fastpic.ru/big/2010/0729/14/5366b11fc226de284cc03961610da414.png http://www.kinopoisk.ru/rating/592155.gif

Релиз группы:http://i27.fastpic.ru/big/2012/0107/11/62f2e0a43382db869e5a1a0d7962ad11.gif

Все раздачи сериала

Качество: DVD9 R5
Формат: DVD-Video
Видео кодек: MPEG2
Аудио кодек: AC3
Видео: PAL 16:9 (720x576(0.442)) MPEG Video, 25,000 кадр/сек, 4586 Кбит/сек
Аудио: Russian (Dolby AC3, 6 ch) 448 Кбит/сек, 48,0 КГц







DVDInfo
Title:
Size: 7.81 Gb ( 8 192 428 KBytes ) - DVD-9
Enabled regions: 1, 2, 3, 4, 5, 6, 7, 8

VTS_01 :
Play Length: 00:00:05
Video: PAL 4:3 (720x576) VBR

VTS_02 :
Play Length: 00:00:16
Video: PAL 16:9 (720x576) VBR, Auto Pan&Scan
Audio:
Not specified (Dolby AC3, 2 ch)

VTS_03 :
Play Length: 00:00:07
Video: PAL 16:9 (720x576) VBR, Auto Pan&Scan
Audio:
Not specified (Dolby AC3, 2 ch)

VTS_04 :
Play Length: 00:51:12
Video: PAL 16:9 (720x576) VBR, Auto Pan&Scan
Audio:
Russian (Dolby AC3, 6 ch)

VTS_05 :
Play Length: 00:49:10
Video: PAL 16:9 (720x576) VBR, Auto Pan&Scan
Audio:
Russian (Dolby AC3, 6 ch)

VTS_06 :
Play Length: 00:48:10
Video: PAL 16:9 (720x576) VBR, Auto Pan&Scan
Audio:
Russian (Dolby AC3, 6 ch)

VTS_07 :
Play Length: 00:49:05
Video: PAL 16:9 (720x576) VBR, Auto Pan&Scan
Audio:
Russian (Dolby AC3, 6 ch)

Menu Video:
PAL 16:9 (720x576) VBR
Auto Pan&Scan, Auto Letterboxed
Menu English Language Unit :
Root Menu


MediaInfo
Общее
Полное имя : J:\Новинки 2012\Kremen.2012.DVD9\VIDEO_TS\VTS_04_1.VOB
Формат : MPEG-PS
Размер файла : 1024 Мбайт
Продолжительность : 27 м.
Режим общего битрейта : Переменный
Общий поток : 5136 Кбит/сек

Видео
Идентификатор : 224 (0xE0)
Формат : MPEG Video
Версия формата : Version 2
Профиль формата : Main@Main
Параметр BVOP формата : Да
Параметр матрицы формата : Выборочная
Продолжительность : 27 м.
Вид битрейта : Переменный
Битрейт : 4586 Кбит/сек
Максимальный битрейт : 8000 Кбит/сек
Ширина : 720 пикселей
Высота : 576 пикселей
Соотношение сторон : 4:3
Частота кадров : 25,000 кадров/сек
Стандарт вещания : PAL
Цветовое пространство : YUV
Субдискретизация насыщенности : 4:2:0
Битовая глубина : 8 бит
Тип развёртки : Чересстрочная
Порядок развёртки : Нижнее поле первое
Метод сжатия : С потерями
Бит/(Пиксели*Кадры) : 0.442
Размер потока : 914 Мбайт (89%)

Аудио
Идентификатор : 189 (0xBD)-128 (0x80)
Формат : AC-3
Формат/Информация : Audio Coding 3
Расширение режима : CM (complete main)
Параметр Endianness формата : Big
Режим смешивания : DVD-Video
Продолжительность : 27 м.
Вид битрейта : Постоянный
Битрейт : 448 Кбит/сек
Каналы : 6 каналов
Расположение каналов : Front: L C R, Side: L R, LFE
Частота : 48,0 КГц
Битовая глубина : 16 бит
Метод сжатия : С потерями
Размер потока : 89,3 Мбайт (9%)


Скриншоты меню
http://i36.fastpic.ru/thumb/2012/0513/74/0f16ff4a3d4440f53bc4fdd3196f6974.jpeg http://i36.fastpic.ru/thumb/2012/0513/35/2e33ea3f0d97f56d3dac82ccaf81ec35.jpeg


Скриншоты фильма
http://i38.fastpic.ru/thumb/2012/0513/5a/24481bacf041f0bbbf97807fb033d85a.jpeg http://i38.fastpic.ru/thumb/2012/0513/a3/4ea48b7c77e11199b453cc69607a57a3.jpeg http://i38.fastpic.ru/thumb/2012/0513/1b/5072c601af964762fc4a92f0fdee0b1b.jpeg http://i38.fastpic.ru/thumb/2012/0513/14/d51f0e1c96ac8488083f66465a2cb714.jpeg http://i38.fastpic.ru/thumb/2012/0513/c9/0a5823266d838862fae30d1b822bcfc9.jpeg http://i38.fastpic.ru/thumb/2012/0513/72/f8dec900adf455633a1901971fb1e172.jpeg http://i38.fastpic.ru/thumb/2012/0513/07/75b2af4340f043435e4c6e992ca82b07.jpeg http://i38.fastpic.ru/thumb/2012/0513/91/8091fe3304a8891ab40929c82dceb391.jpeg http://i38.fastpic.ru/thumb/2012/0513/93/2d02c222b5ec9fcdc7d77dcf8e018993.jpeg http://i38.fastpic.ru/thumb/2012/0513/7f/9ff12bd6a32625c8a9fdc5377cfdec7f.jpeg http://i38.fastpic.ru/thumb/2012/0513/8d/01cc888e1d27723466759a57157bf28d.jpeg http://i38.fastpic.ru/thumb/2012/0513/a7/0cce13c74f58a75c6bcb84efa20f44a7.jpeg http://i38.fastpic.ru/thumb/2012/0513/c7/d7e9b788f5c258d2611e0952b82934c7.jpeg







Раздача от группы:http://static.rutracker.org/ranks/rg_torrents_logo.gif
Похожие файлы
Загрузка / Обновление
КатегорияСериалы RSS лента
Просмотров117 раз (a)
Взят2 раз (a)
Файлы29
Размер7.81 GB (8,389,046,272 байт)
Добавлен
РаздалViKa  (Искать торренты)
Участники
Участники - Загрузка / Обновление
Просматривают Просматривают Загрузка...

-†- ¿? -†-
« Предыдущая - † Страница † - Следующая »

:: Список Комментариев
Нет комментариев.

 Нет комментариев
Вам запрещенно редактировать, создать или удалять комментарии.
shpv© 2007-2014
Страничка сформирована за 0.057 секунд.
Яндекс.Метрика Rambler's Top100