скачать торрент трекер Friends
 
 Главная  •  Торренты  •  Новые релизы  •  Форум  •   •  Персоны кино  •  Правила  •  ЧаВо

Язык интерфейса
Язык интерфейса:


Привет, Гость
[15] из [15]
Введите Логин:
Введите Пароль:
Регистрация
Восстановить Пароль

Линки
АнекдотыБанкоматВсе теги / меткиДополнительные услугиТехподдержка

Главное Меню
 Главная Торренты Релизы за сегодня Персоны кино Запросы / Предложения (3) Правила ЧаВо Проверка BB кодов Топ 10 Архив новостей Прошлые опросы Форматы файлов Группы Последние комментарии Техподдержка

:: Детали раздачи
Торрент раздача является мультитрекерной — учтите, количество раздающих не будет совпадать с количеством участников на сайте (скачивание на клиентской стороне зависит от настроек uTorrent клиент программы, настройки -> Включить DHT, Обмен пирами и Поиск лок-х пиров).
Если висит надпись, пиры по нулям - не бойтесь, возможность скачать повторно торрент раздачу - есть. Попробуйте, в случае отказа - прокоментируйте или нажмите на "Позвать скачавших".

Час Волкова / Сезон: 1 Серии: 26-27 из 27 (Александр Грабарь, Антон Дорин, Егор Грамматиков)

Скачать
Магнет
ПомощьКак скачать раздачу
Поделиться
Теги / Меткидетективный сериал
Описаниеhttp://i8.fastpic.ru/big/2010/0805/ed/3f8e00866040abe771449db79f1f95ed.jpgГод выпуска: 2007
Производство: Россия, ООО "Телестанция"
Жанр: Детективный сериал
Продолжительность: 00:47:00
Субтитры: нет

Режиссёр: Александр Грабарь, Антон Дорин, Егор Грамматиков

В ролях: Денис Бургазлиев, Геннадий Венгеров, Линда Табагари, Саркис Армизян, Григорий Багров, Оксана Васильева, Мария Гончар, Николай Качура, Сергей Климов, Лилия Кондрова...

Описание: О жизни и работе двух оперативников — майора Волкова и капитана Тарабрина. Эта пара — ядерная смесь, которой под силу решение задач любой сложности. Серийные маньяки, бытовые убийцы, гламурные дамы и богемные тусовщики сбрасывают перед ними свои маски, открывая истинные лица. Каждое расследование — это настоящая схватка, игра без поддавков. В битве за справедливость им предстоит встретиться с изощренными, хитрыми и расчетливыми противниками. Но чем сложнее дело, тем выше цена их победы!

Доп. информация:
Название серий:
26. Оборотень
27. Китайский след

http://static.rutracker.org/smiles/icon_arrow.gif
Все раздачи сериала

Качество: SATRip
Формат: AVI
Видео кодек: DivX
Аудио кодек: MP3
Видео: DivX, 620x360 (1.72:1), 25 fps, 1100 kbps avg, 0.20 bit/pixel
Аудио: MPEG Layer 3, 44100Hz, 2 ch, 128Kbps

MediaInfo


ОбщееПолное имя : L:\Desktop\Час Волкова (Продолжение)\Chas_Volkova_Novye_seriji_2008_Kitaiskij_sled.aviФормат : AVIФормат/Информация : Audio Video InterleaveРазмер файла : 422 МбайтПродолжительность : 47 м.Общий поток : 1238 Кбит/секБиблиотека кодирования : VirtualDub-MPEG2 build 24417/release

ВидеоИдентификатор : 0Формат : MPEG-4 VisualПараметр BVOP формата : 1Параметр QPel формата : НетПараметр GMC формата : Без точки переходаПараметр матрицы формата : Default (H.263)Режим смешивания : Сжатый битовый потокИдентификатор кодека : DX50Идентификатор кодека/Подсказка : DivX 5Продолжительность : 47 м.Битрейт : 1100 Кбит/секШирина : 620 пикс.Высота : 360 пикс.Соотношение сторон : 16:9Частота кадров : 25,000 кадр/секЦветовое пространство : YUVПодвыборка цветности : 4:2:0Битовая глубина : 8 битТип развёртки : ПрогрессивнаяМетод сжатия : С потерямиБит/(Пиксели*Кадры) : 0.197Размер потока : 375 Мбайт (89%)Библиотека кодирования : DivX 5.1.1 (Maupiti) (UTC 2003-11-19)

АудиоИдентификатор : 1Формат : MPEG AudioВерсия формата : Version 1Профиль формата : Layer 3Режим : Joint stereoРасширение режима : MS StereoИдентификатор кодека : 55Идентификатор кодека/Подсказка : MP3Продолжительность : 47 м.Вид битрейта : ПостоянныйБитрейт : 128 Кбит/секКаналы : 2 каналаЧастота : 44,1 КГцМетод сжатия : С потерямиРазмер потока : 43,6 Мбайт (10%)Выравнивание : Разделение по промежуткамПродолжительность промежутка : 40 мс. (1,00 видеокадр)Время предзагрузки промежутка : 500 ms



Скриншоты
http://i32.fastpic.ru/big/2011/0908/b3/270783ad6b51140fb3e9f71ed63b64b3.jpg
http://i30.fastpic.ru/big/2011/0908/a9/1ee336adbe3a415d7399dd6bfac079a9.jpg
http://i27.fastpic.ru/big/2011/0908/0b/e3c06f5b6f90e440a6ac7572ce73b40b.jpg
http://i28.fastpic.ru/big/2011/0908/7c/4f6a47309b6df45feb76da680893f57c.jpg
Скриншоты
Похожие файлы
Загрузка / Обновление
КатегорияСериалы RSS лента
Просмотров175 раз (a)
Взят0 раз (a)
Файлы2
Размер838.05 MB (878,759,824 байт)
Добавлен
РаздалViKa  (Искать торренты)
Участники
Участники - Загрузка / Обновление
Просматривают Просматривают Загрузка...

-†- ¿? -†-
« Предыдущая - † Страница † - Следующая »

:: Список Комментариев
Нет комментариев.

 Нет комментариев
Вам запрещенно редактировать, создать или удалять комментарии.
shpv© 2007-2014
Страничка сформирована за 0.860 секунд.
Яндекс.Метрика Rambler's Top100