скачать торрент трекер Friends
 
 Главная  •  Торренты  •  Новые релизы  •  Форум  •   •  Персоны кино  •  Правила  •  ЧаВо

Язык интерфейса
Язык интерфейса:


Привет, Гость
[15] из [15]
Введите Логин:
Введите Пароль:
Регистрация
Восстановить Пароль

Линки
АнекдотыБанкоматВсе теги / меткиДополнительные услугиТехподдержка

Главное Меню
 Главная Торренты Релизы за сегодня Персоны кино Запросы / Предложения (3) Правила ЧаВо Проверка BB кодов Топ 10 Архив новостей Прошлые опросы Форматы файлов Группы Последние комментарии Техподдержка

:: Детали раздачи
Торрент раздача является мультитрекерной — учтите, количество раздающих не будет совпадать с количеством участников на сайте (скачивание на клиентской стороне зависит от настроек uTorrent клиент программы, настройки -> Включить DHT, Обмен пирами и Поиск лок-х пиров).
Если висит надпись, пиры по нулям - не бойтесь, возможность скачать повторно торрент раздачу - есть. Попробуйте, в случае отказа - прокоментируйте или нажмите на "Позвать скачавших".

Самозванка / Серии: 1-4 из 4 (Егор Анашкин)

Скачать
Магнет
ПомощьКак скачать раздачу
Поделиться
Теги / Меткимелодрама
Описаниеhttp://i35.fastpic.ru/big/2012/0401/43/d4ae0e8c8dedabf39637ec6e8c818043.pngГод выпуска: 2012
Производство: ООО "Маркес" и "Студия Анкор"
Жанр: мелодрама
Продолжительность: ~00:45:00 серия

Режиссёр: Егор Анашкин

В ролях: Светлана Антонова, Никита Зверев, Станислав Бондаренко, Иван Агапов, Ольга Спиркина, Алёна Галлиардт, Анатолий Узденский, Анна Гуляренко, Андрей Гуркин, Александр Числов, Всеволод Николаев, Борис Шитиков, Зинаида Матросова

Описание: Бывшая детдомовка Марта случайно выясняет, что ее новый возлюбленный вовсе не менеджер, а… киллер. Сорвав ему очередное убийство, она сама становится мишенью. Марте приходится бежать из города. Путь приводит ее к старухе Фаине, которую уже давно бросили родные. Полуслепая старуха принимает незваную гостью за свою пропавшую внучку, и у Марты не хватает сил признаться, что это не так. Марта всегда хотела иметь семью, но не ожидала, что однажды станет внучкой, дочерью и сестрой. А новоиспеченные родственники окажутся так далеки от придуманного в детдомовском детстве идеала…

Все раздачи сериала / Сэмпл

Качество: DVB (Express MD1 at 80.0°E)
Формат: MPEG-PS
Видео кодек: MPEG2
Аудио кодек: MPEG1 Layer 2
Видео: MPEG 2, 720x576 (4:3), 25.000 fps, 5392 Kbps (0.520 bit/pixel)
Аудио: MPEG1 Layer 2, 48.0 KHz, 2 ch, 256 Kbps, CBR

MediaInfo


ОбщееПолное имя : H:\Раздачи\Самозванка\Самозванка.01.mpgФормат : MPEG-PSРазмер файла : 1,76 ГбайтПродолжительность : 43 м.Режим общего битрейта : ПеременныйОбщий поток : 5763 Кбит/секБиблиотека кодирования : (c) 1998-2011 Womble Multimedia, Inc. / MPEG Video Wizard DVD 5.0.1.100 (03/2011) / Dec 19 2011

ВидеоИдентификатор : 224 (0xE0)Формат : MPEG VideoВерсия формата : Version 2Профиль формата : Main@MainПараметр BVOP формата : ДаПараметр матрицы формата : ВыборочнаяПродолжительность : 43 м.Вид битрейта : ПеременныйБитрейт : 5392 Кбит/секМаксимальный битрейт : 10000 Кбит/секШирина : 720 пикселейВысота : 576 пикселейСоотношение сторон : 4:3Частота кадров : 25,000 кадров/секСтандарт вещания : PALЦветовое пространство : YUVСубдискретизация насыщенности : 4:2:0Битовая глубина : 8 битТип развёртки : ЧересстрочнаяПорядок развёртки : Верхнее поле первоеМетод сжатия : С потерямиБит/(Пиксели*Кадры) : 0.520Размер потока : 1,65 Гбайт (94%)Библиотека кодирования : (c) 1998-2011 Womble Multimedia, Inc. / MPEG Video Wizard DVD 5.0.1.100 (03/2011) / Dec 19 2011

АудиоИдентификатор : 192 (0xC0)Формат : MPEG AudioВерсия формата : Version 1Профиль формата : Layer 2Продолжительность : 43 м.Вид битрейта : ПостоянныйБитрейт : 256 Кбит/секКаналы : 2 каналаЧастота : 48,0 КГцМетод сжатия : С потерямиЗадержка видео : -40 мс.Размер потока : 80,0 Мбайт (4%)

Меню



Скриншоты
http://i35.fastpic.ru/big/2012/0401/bb/b78c063022662a9be99e312d55f2bcbb.png
http://i28.fastpic.ru/big/2012/0401/5e/c10ae933858eb4a368abf93f29753a5e.png
http://i27.fastpic.ru/big/2012/0401/14/073081d1aee0499345b3b0275bf4f014.png
http://i35.fastpic.ru/big/2012/0401/70/ca8b86000567264062c86c4d57102870.png


http://i28.fastpic.ru/big/2012/0401/09/2d528fb1e9be6301044a6df29e1dac09.png
http://i28.fastpic.ru/big/2012/0401/eb/285af124f291a24b69cdb0f4fb67f3eb.png
http://i33.fastpic.ru/big/2012/0401/38/078a8290d34d283b5f1d73e5adc90c38.png
http://i35.fastpic.ru/big/2012/0401/1a/c706e92d912c86a60da4a8476ec8ed1a.png
Скриншоты
Похожие файлы
Загрузка / Обновление
КатегорияСериалы RSS лента
Просмотров111 раз (a)
Взят2 раз (a)
Файлы4
Размер7.08 GB (7,600,965,632 байт)
Добавлен
РаздалViKa  (Искать торренты)
Участники
Участники - Загрузка / Обновление
Просматривают Просматривают Загрузка...

-†- ¿? -†-
« Предыдущая - † Страница † - Следующая »

:: Список Комментариев
Нет комментариев.

 Нет комментариев
Вам запрещенно редактировать, создать или удалять комментарии.
shpv© 2007-2014
Страничка сформирована за 0.558 секунд.
Яндекс.Метрика Rambler's Top100