скачать торрент трекер Friends
 
 Главная  •  Торренты  •  Новые релизы  •  Форум  •   •  Персоны кино  •  Правила  •  ЧаВо

Язык интерфейса
Язык интерфейса:


Привет, Гость
[15] из [15]
Введите Логин:
Введите Пароль:
Регистрация
Восстановить Пароль

Линки
АнекдотыБанкоматВсе теги / меткиДополнительные услугиТехподдержка

Главное Меню
 Главная Торренты Релизы за сегодня Персоны кино Запросы / Предложения (3) Правила ЧаВо Проверка BB кодов Топ 10 Архив новостей Прошлые опросы Форматы файлов Группы Последние комментарии Техподдержка

:: Детали раздачи
Торрент раздача является мультитрекерной — учтите, количество раздающих не будет совпадать с количеством участников на сайте (скачивание на клиентской стороне зависит от настроек uTorrent клиент программы, настройки -> Включить DHT, Обмен пирами и Поиск лок-х пиров).
Если висит надпись, пиры по нулям - не бойтесь, возможность скачать повторно торрент раздачу - есть. Попробуйте, в случае отказа - прокоментируйте или нажмите на "Позвать скачавших".

Бесценная любовь / Серии: 1-4 из 4 (Игорь Ройзман)

Скачать
Магнет
ПомощьКак скачать раздачу
Поделиться
Теги / Меткимелодрама
Постер
ОписаниеГод выпуска: 2013
Производство: Парк Синема
Жанр: Мелодрама
Продолжительность: ~0:44:00 серия
Субтитры: Украинские (вшитые)

Режиссёр: Игорь Ройзман

В ролях: Юрий Колокольников, Ольга Смирнова (III), Анастасия Задорожная, Артём Осипов, Валерий Афанасьев, Дарья Чаруша, Владимир Капустин (II), Александра Булычёва

Описание: Два друга-авантюриста Илья и Юрий промышляют тем, что разводят людей на деньги. Оба друга полюбили одну девушку Машу. Но Маша любит Илью. И собирается выйти за него замуж. Юрий не может простить другу, что тот увел у него девушку…

Все раздачи сериала: Бесценная любовь

http://i29.fastpic.ru/big/2011/1030/ea/b1cf2ef64e49d1b69670beab9a74f7ea.png

Качество: DVB
Формат: MPEG
Видео кодек: MPEG2
Аудио кодек: MPEG1
Видео: MPEG2 Video 768х576 @ 720x576 (4:3) 25.00fps ~4462 Kbps (0.32 bit/pixel)
Аудио: MPEG Audio 48000Hz 1 channels 192 Кбит/сек

Сторонней рекламы нет!

MediaInfo


ОбщееПолное имя : I:\СЕРИАЛЫ\Бесценная любовь DVB\Бесценная любовь 01_серия_DVB_by_Серый1779.mpgФормат : MPEG-PSРазмер файла : 1,50 ГбайтПродолжительность : 45 м.Общий поток : 4748 Кбит/сек

ВидеоИдентификатор : 224 (0xE0)Формат : MPEG VideoВерсия формата : Version 2Профиль формата : Main@MainПараметр BVOP формата : ДаПараметр матрицы формата : По умолчаниюПродолжительность : 45 м.Вид битрейта : ПеременныйБитрейт : 4461 Кбит/секНоминальный битрейт : 15,0 Мбит/секШирина : 720 пикс.Высота : 576 пикс.Соотношение сторон : 4:3Частота кадров : 25,000 кадр/секСтандарт вещания : PALЦветовое пространство : YUVПодвыборка цветности : 4:2:0Битовая глубина : 8 битТип развёртки : ЧересстрочнаяПорядок развёртки : Верхнее поле первоеМетод сжатия : С потерямиБит/(Пиксели*Кадры) : 0.430Размер потока : 1,41 Гбайт (94%)

АудиоИдентификатор : 192 (0xC0)Формат : MPEG AudioВерсия формата : Version 1Профиль формата : Layer 2Продолжительность : 45 м.Вид битрейта : ПостоянныйБитрейт : 192 Кбит/секКаналы : 1 каналЧастота : 48,0 КГцМетод сжатия : С потерямиРазмер потока : 62,2 Мбайт (4%)


Запись и монтаж: http://i27.fastpic.ru/big/2012/0109/f4/e3cb3b5ce4a312896095daceb5e8bcf4.gif

Раздача группы: http://static.rutracker.org/ranks/rg_humor.gif

Внимание ! Раздача ведётся путём добавления новых серий
Внимание! Раздача ведётся путём добавления новых серий; при каждом добавлении создётся новый торрент. Чтобы начать докачку новой серии, пользователям необходимо сделать следующее:
(1) остановить скачивание,
(2) удалить старый торрент у себя из клиента (старые серии удалять не надо),
(3) скачать новый торрент и запустить его у себя в клиенте вместо старого, при этом указать клиенту путь в старую папку куда и должно происходить скачивание новых серий.
Ваш клиент при этом должен произвести хеширование (проверку) старой папки (если не производит сам - помогите ему сделать это), и будет докачивать только те серии которых у вас ещё нет. Старые серии при этом не удаляются, а продолжают раздаваться!
Eсли вы уже удалили старые серии, то предотвратить повторную закачку старых серий можно, отжав галочку в соответсвующих местах при запуске нового торрента. По возможности, желательно не удалять старые серии как можно дольше чтобы релизёр не столько продолжал раздавать старые серии, а смог сконцентрироваться на новых.

ВНИМАНИЕ! ТОРРЕНТ ПЕРЕЗАЛИТ! ДОБАВЛЕНА 2-ая -4-ая СЕРИИ!

Скриншоты
http://i1.imageban.ru/thumbs/2013.05.18/3edc3858fe68ebb808c4f3af6d204a0a.jpg http://i5.imageban.ru/thumbs/2013.05.18/bc129ca1d6ee88f9051a5adf8e9c05f2.jpg http://i5.imageban.ru/thumbs/2013.05.18/add99b6633fab09720d519b6f843351e.jpg http://i5.imageban.ru/thumbs/2013.05.18/06153814fcf87cbb62f5fab67cc313b4.jpg

http://i17.fastpic.ru/big/2011/0302/93/84d6588c7f6e1cc66b53d3103e74fa93.gif[/img][img]http://s60.radikal.ru/i170/1007/6a/664e8d89abdf.gif
Похожие файлы
Загрузка / Обновление
КатегорияСериалы RSS лента
Просмотров182 раз (a)
Взят1 раз (a)
Файлы4
Размер6.26 GB (6,716,956,672 байт)
Добавлен
РаздалViKa  (Искать торренты)
Участники
Участники - Загрузка / Обновление
Просматривают Просматривают Загрузка...

-†- ¿? -†-
« Предыдущая - † Страница † - Следующая »

:: Список Комментариев
Нет комментариев.

 Нет комментариев
Вам запрещенно редактировать, создать или удалять комментарии.
shpv© 2007-2014
Страничка сформирована за 0.143 секунд.
Яндекс.Метрика Rambler's Top100