скачать торрент трекер Friends
 
 Главная  •  Торренты  •  Новые релизы  •  Форум  •   •  Персоны кино  •  Правила  •  ЧаВо

Язык интерфейса
Язык интерфейса:


Привет, Гость
[15] из [15]
Введите Логин:
Введите Пароль:
Регистрация
Восстановить Пароль

Линки
АнекдотыБанкоматВсе теги / меткиДополнительные услугиТехподдержка

Главное Меню
 Главная Торренты Релизы за сегодня Персоны кино Запросы / Предложения (3) Правила ЧаВо Проверка BB кодов Топ 10 Архив новостей Прошлые опросы Форматы файлов Группы Последние комментарии Техподдержка

:: Детали раздачи
Торрент раздача является мультитрекерной — учтите, количество раздающих не будет совпадать с количеством участников на сайте (скачивание на клиентской стороне зависит от настроек uTorrent клиент программы, настройки -> Включить DHT, Обмен пирами и Поиск лок-х пиров).
Если висит надпись, пиры по нулям - не бойтесь, возможность скачать повторно торрент раздачу - есть. Попробуйте, в случае отказа - прокоментируйте или нажмите на "Позвать скачавших".

Карамель / Серии: 1-40 из 40 (Флюза Фархшатова)

Скачать
Магнет
ПомощьКак скачать раздачу
Поделиться
Теги / Меткикомедия
Постер
ОписаниеГод выпуска: 2011
Производство: ВайТ Медиа
Жанр: Комедия
Продолжительность: 00:45:00
Субтитры: Нет

Режиссёр: Флюза Фархшатова

В ролях: Алла Юганова, Виктор Добронравов, Михаил Полицеймако, Александр Константинов, Лиза Мартинес, Ольга Тумайкина, Александр Шпагин, Ольга Ефремова, Кирилл Рубцов, Георгий Сегал, Алёна Корнева

Описание: Как обрести настоящую любовь и, наконец-то, понять мужчин? Можно ли найти работу своей мечты и стать совершенно счастливой? На эти вопросы так долго не могла найти ответы наша главная героиня - Анна.
Она была наивной и доверчивой, хорошенькой и чуточку неуверенной в себе, ей не везло в любви, да и в карьере тоже. Но все изменилось, в один прекрасный день, когда Аня встретила таинственную незнакомку и получила от нее настоящий подарок судьбы – волшебную карамель.
Стоило только ей раскусить конфету - и тут же Анна начала слышать мысли всех окружающих её мужчин, которые бывают весьма занимательны, а иногда, так огорчительны.
Сможет ли Аня воспользоваться обретенным даром себе на пользу, или он принесет ей сплошные неприятности?

Доп.информация: Реклама отсутствует!

http://www.kinopoisk.ru/rating/635996.gif http://static.rutracker.org/smiles/icon_arrow.gif
Все раздачи сериала

http://i3.fastpic.ru/big/2009/1023/0b/dc359c6d099c54a5cfb56445a5450d0b.png

Качество: DVB
Формат: MPEG-PS
Видео кодек: MPEG2
Аудио кодек: MPEG Audio Layer 2
Видео: MPEG 2, 720x576 (4:3), 25.000 fps, 2952 Kbps (0.285 bit/pixel)
Аудио: MPEG Audio Layer 2, 48.0 KHz, 2 ch, 192 Kbps, CBR





MediaInfo


ОбщееПолное имя : C:\Раздачи\Карамель.DVB\Карамель.01.mpgФормат : MPEG-PSРазмер файла : 1,01 ГбайтПродолжительность : 45 м.Режим общего битрейта : ПеременныйОбщий поток : 3208 Кбит/секБиблиотека кодирования : (c) 1998-2011 Womble Multimedia, Inc. / MPEG Video Wizard DVD 5.0.1.100 (03/2011) / Sep 2 2011

ВидеоИдентификатор : 224 (0xE0)Формат : MPEG VideoВерсия формата : Version 2Профиль формата : Main@MainПараметр BVOP формата : ДаПараметр матрицы формата : ВыборочнаяПараметр GOP формата : M=3, N=18Продолжительность : 45 м.Вид битрейта : ПеременныйБитрейт : 2952 Кбит/секМаксимальный битрейт : 15,0 Мбит/секШирина : 720 пикселейВысота : 576 пикселейСоотношение сторон : 4:3Частота кадров : 25,000 кадров/секСтандарт вещания : PALЦветовое пространство : YUVСубдискретизация насыщенности : 4:2:0Битовая глубина : 8 битТип развёртки : ЧересстрочнаяПорядок развёртки : Верхнее поле первоеМетод сжатия : С потерямиБит/(Пиксели*Кадры) : 0.285Размер потока : 950 Мбайт (92%)Библиотека кодирования : (c) 1998-2011 Womble Multimedia, Inc. / MPEG Video Wizard DVD 5.0.1.100 (03/2011) / Sep 2 2011

АудиоИдентификатор : 192 (0xC0)Формат : MPEG AudioВерсия формата : Version 1Профиль формата : Layer 2Продолжительность : 45 м.Вид битрейта : ПостоянныйБитрейт : 192 Кбит/секКаналы : 2 каналаЧастота : 48,0 КГцМетод сжатия : С потерямиРазмер потока : 61,8 Мбайт (6%)

Меню



Скриншоты
http://i29.fastpic.ru/big/2011/1107/2d/61abddda1cc292e0affd61c2d7e3fa2d.png
http://i32.fastpic.ru/big/2011/1107/dd/a786651146261834c74014f231c77bdd.png
http://i27.fastpic.ru/big/2011/1107/8c/f76db1d16f4362cf6af8271f9e82898c.png
http://i32.fastpic.ru/big/2011/1107/e7/8725e6e361a6c6ee5867e0431479a4e7.png


http://i29.fastpic.ru/big/2011/1107/64/1c755e788ffd9c06083ff98502cc4e64.png
http://i30.fastpic.ru/big/2011/1107/41/949a7ea7625e1a9d25a5cded1c0d0541.png
http://i30.fastpic.ru/big/2011/1107/bb/971dbeaf59f7d91e9753e7911fbe72bb.png
http://i30.fastpic.ru/big/2011/1107/d4/8a561539f9983c83d2b18a7e17f6dbd4.png








Раздача ведётся путём добавления новых серий
Раздача ведётся путём добавления новых серий; при каждом добавлении создаётся новый торрент. Чтобы начать докачку новой серии, пользователям необходимо сделать следующее:
(1) остановить скачивание,
(2) удалить старый торрент у себя из клиента (старые серии удалять не надо),
(3) скачать новый торрент и запустить его у себя в клиенте вместо старого, при этом указать клиенту путь в старую папку куда и должно происходить скачивание новых серий.

Ваш клиент при этом должен произвести хеширование (проверку) старой папки (если не производит сам - помогите ему сделать это), и будет докачивать только те серии которых у вас ещё нет. Старые серии при этом не удаляются, а продолжают раздаваться!

Eсли вы уже удалили старые серии, то предотвратить повторную закачку старых серий можно, отжав галочку в соответствующих местах при запуске нового торрента. По возможности, желательно не удалять старые серии как можно дольше чтобы релизёр не столько продолжал раздавать старые серии, а смог сконцентрироваться на новых.
Скриншоты
Похожие файлы
Загрузка / Обновление
КатегорияСериалы RSS лента
Просмотров80 раз (a)
Взят0 раз (a)
Файлы40
Размер40.65 GB (43,647,936,468 байт)
Добавлен
РаздалViKa  (Искать торренты)
Участники
Участники - Загрузка / Обновление
Просматривают Просматривают Загрузка...

-†- ¿? -†-
« Предыдущая - † Страница † - Следующая »

:: Список Комментариев
Нет комментариев.

 Нет комментариев
Вам запрещенно редактировать, создать или удалять комментарии.
shpv© 2007-2014
Страничка сформирована за 0.113 секунд.
Яндекс.Метрика Rambler's Top100