скачать торрент трекер Friends
 
 Главная  •  Торренты  •  Новые релизы  •  Форум  •   •  Персоны кино  •  Правила  •  ЧаВо

Язык интерфейса
Язык интерфейса:


Привет, Гость
[15] из [15]
Введите Логин:
Введите Пароль:
Регистрация
Восстановить Пароль

Линки
АнекдотыБанкоматВсе теги / меткиДополнительные услугиТехподдержка

Главное Меню
 Главная Торренты Релизы за сегодня Персоны кино Запросы / Предложения (3) Правила ЧаВо Проверка BB кодов Топ 10 Архив новостей Прошлые опросы Форматы файлов Группы Последние комментарии Техподдержка

:: Детали раздачи

Танкисты своих не бросают / Серии: 1-4 из 4 (Александр Грабарь)

Скачать
Магнет
ПомощьКак скачать раздачу
Поделиться
Теги / Меткимелодрама
Постер
ОписаниеГод выпуска: 2014
Производство: Всемирные Русские Студии
Жанр: Мелодрама
Продолжительность: ~0:50:00 серия
Субтитры: украинские вшитые

Режиссёр: Александр Грабарь

В ролях: Ирина Пегова, Константин Милованов, Мария Луговая, Александр Яцко, Александр Никитин (IV), Екатерина Маликова, Борис Тенин (II), Алиса Гребенщикова, Анатолий Гущин, Александр Стёпин, Денис Юшечкин, Сергей Шеховцов

Описание: Наконец-то Марина счастлива. Одинокая женщина, потерявшая сына и мужа, она снова выходит замуж – за капитана танковых войск в отставке Федора. Но вскоре ее муж получает травму, после чего давнее ранение дает о себе знать. Федор при смерти. Спасти его может профессор Росман, местное светило медицины. Операция стоит больших денег, которых в семье нет, а бесплатно помочь врач отказывается. Марина продает все ценности, часть денег собирают однополчане ее мужа. Но с трудом собранную сумму крадут. А Федору становится все хуже. И тогда скромная женщина решается на отчаянный шаг: она похищает дочь профессора, Кристину, и требует спасти мужа в обмен на безопасность девушки…

Все раздачи сериала: Танкисты своих не бросают

http://i29.fastpic.ru/big/2011/1030/ea/b1cf2ef64e49d1b69670beab9a74f7ea.png

Качество: DVB
Формат: MPEG
Видео кодек: MPEG2
Аудио кодек: MPEG1
Видео: MPEG2 Video 768х576 @ 704x576 (4:3) 25.00fps ~4462 Kbps (0.430 bit/pixel)
Аудио: MPEG Audio 48000Hz 1 channels 192 Кбит/сек

Сторонней рекламы нет!

MediaInfo


ОбщееПолное имя : F:\ Танкисты своих не бросают DVB\Танкисты своих не бросают 01_серия_DVB_by_Серый1779.mpgФормат : MPEG-PSРазмер файла : 1,56 ГбайтПродолжительность : 46 м.Общий поток : 4749 Кбит/сек

ВидеоИдентификатор : 224 (0xE0)Формат : MPEG VideoВерсия формата : Version 2Профиль формата : Main@MainПараметр BVOP формата : ДаПараметр матрицы формата : По умолчаниюПродолжительность : 46 м.Вид битрейта : ПеременныйБитрейт : 4462 Кбит/секНоминальный битрейт : 15,0 Мбит/секШирина : 720 пикс.Высота : 576 пикс.Соотношение сторон : 4:3Частота кадров : 25,000 кадр/секСтандарт вещания : PALЦветовое пространство : YUVПодвыборка цветности : 4:2:0Битовая глубина : 8 битТип развёртки : ЧересстрочнаяПорядок развёртки : Верхнее поле первоеМетод сжатия : С потерямиБит/(Пиксели*Кадры) : 0.430Размер потока : 1,46 Гбайт (94%)

АудиоИдентификатор : 192 (0xC0)Формат : MPEG AudioВерсия формата : Version 1Профиль формата : Layer 2Продолжительность : 46 м.Вид битрейта : ПостоянныйБитрейт : 192 Кбит/секКаналы : 1 каналЧастота : 48,0 КГцМетод сжатия : С потерямиРазмер потока : 64,5 Мбайт (4%)


Запись и монтаж: http://i27.fastpic.ru/big/2012/0109/f4/e3cb3b5ce4a312896095daceb5e8bcf4.gif

Раздача группы: http://static.rutracker.org/pic/rgrs/logo.png

Внимание ! Раздача ведётся путём добавления новых серий
Внимание! Раздача ведётся путём добавления новых серий; при каждом добавлении создётся новый торрент. Чтобы начать докачку новой серии, пользователям необходимо сделать следующее:
(1) остановить скачивание,
(2) удалить старый торрент у себя из клиента (старые серии удалять не надо),
(3) скачать новый торрент и запустить его у себя в клиенте вместо старого, при этом указать клиенту путь в старую папку куда и должно происходить скачивание новых серий.
Ваш клиент при этом должен произвести хеширование (проверку) старой папки (если не производит сам - помогите ему сделать это), и будет докачивать только те серии которых у вас ещё нет. Старые серии при этом не удаляются, а продолжают раздаваться!
Eсли вы уже удалили старые серии, то предотвратить повторную закачку старых серий можно, отжав галочку в соответсвующих местах при запуске нового торрента. По возможности, желательно не удалять старые серии как можно дольше чтобы релизёр не столько продолжал раздавать старые серии, а смог сконцентрироваться на новых.

ВНИМАНИЕ! ТОРРЕНТ ПЕРЕЗАЛИТ! ДОБАВЛЕНА 4-ая СЕРИИ!

Скриншоты
http://i56.fastpic.ru/thumb/2014/0426/82/afa75dad0d54edb768e85e5a19007d82.jpeg http://i56.fastpic.ru/thumb/2014/0426/f4/4ba6eb6497b989ee55b6e973140a3ff4.jpeg http://i56.fastpic.ru/thumb/2014/0426/1f/36cb652f6f5e90f2e4a602f03659fa1f.jpeg http://i56.fastpic.ru/thumb/2014/0426/8d/ec4bb660ed568d82408eaffe652d688d.jpeg

http://i17.fastpic.ru/big/2011/0302/93/84d6588c7f6e1cc66b53d3103e74fa93.gif[/img][img]http://s60.radikal.ru/i170/1007/6a/664e8d89abdf.gif
Похожие файлы
Загрузка / Обновление
КатегорияСериалы RSS лента
Просмотров87 раз (a)
Взят1 раз (a)
Файлы4
Размер6.26 GB (6,721,376,256 байт)
Добавлен
РаздалViKa  (Искать торренты)
Участники
Участники - Загрузка / Обновление
Просматривают Просматривают Загрузка...

-†- ¿? -†-
« Предыдущая - † Страница † - Следующая »

:: Список Комментариев
Нет комментариев.

 Нет комментариев
Вам запрещенно редактировать, создать или удалять комментарии.
shpv© 2007-2014
Страничка сформирована за 0.370 секунд.
Яндекс.Метрика Rambler's Top100