скачать торрент трекер Friends
 
 Главная  •  Торренты  •  Новые релизы  •  Форум  •   •  Персоны кино  •  Правила  •  ЧаВо

Язык интерфейса
Язык интерфейса:


Привет, Гость
[15] из [15]
Введите Логин:
Введите Пароль:
Регистрация
Восстановить Пароль

Линки
АнекдотыБанкоматВсе теги / меткиДополнительные услугиТехподдержка

Главное Меню
 Главная Торренты Релизы за сегодня Персоны кино Запросы / Предложения (3) Правила ЧаВо Проверка BB кодов Топ 10 Архив новостей Прошлые опросы Форматы файлов Группы Последние комментарии Техподдержка

:: Детали раздачи
Торрент раздача является мультитрекерной — учтите, количество раздающих не будет совпадать с количеством участников на сайте (скачивание на клиентской стороне зависит от настроек uTorrent клиент программы, настройки -> Включить DHT, Обмен пирами и Поиск лок-х пиров).
Если висит надпись, пиры по нулям - не бойтесь, возможность скачать повторно торрент раздачу - есть. Попробуйте, в случае отказа - прокоментируйте или нажмите на "Позвать скачавших".

Танкисты своих не бросают / Серии: 1-4 из 4 (Александр Грабарь)

Скачать
Магнет
ПомощьКак скачать раздачу
Поделиться
Теги / Меткимелодрама
Постер
ОписаниеГод выпуска: 2014
Производство: Всемирные Русские Студии
Жанр: мелодрама
Продолжительность: ~ 00:47:00
Субтитры: Нет

Режиссёр: Александр Грабарь

В ролях: Ирина Пегова, Константин Милованов, Мария Луговая, Александр Яцко, Александр Никитин (IV), Екатерина Маликова, Борис Тенин (II), Алиса Гребенщикова, Анатолий Гущин, Александр Стёпин, Денис Юшечкин, Сергей Шеховцов

Описание: Наконец-то Марина счастлива. Одинокая женщина, потерявшая сына и мужа, она снова выходит замуж – за капитана танковых войск в отставке Федора. Но вскоре ее муж получает травму, после чего давнее ранение дает о себе знать. Федор при смерти. Спасти его может профессор Росман, местное светило медицины. Операция стоит больших денег, которых в семье нет, а бесплатно помочь врач отказывается. Марина продает все ценности, часть денег собирают однополчане ее мужа. Но с трудом собранную сумму крадут. А Федору становится все хуже. И тогда скромная женщина решается на отчаянный шаг: она похищает дочь профессора, Кристину, и требует спасти мужа в обмен на безопасность девушки…





Доп. информация: Реклама отсутствует!





Релиз группы:: http://static.rutracker.org/pic/rgrs/logo.png





Все раздачи сериала: http://rutracker.org/forum/tracker.php?f=9&nm=Т...х%20не%20бросают
Сэмпл: https://cloud.mail.ru/public/30ce8bbac31c/%D0%A2%D0...Rip. by.simka.avi

Качество: SATRip
Формат: AVI
Видео кодек: XviD
Аудио кодек: MP3
Видео: 720x400, 25 fps, XviD, ~1400 kbps, 0.211 bit/pixel
Аудио: 48 kHz, MPEG Layer 3, 2 ch, 192 kbps

MI
Общее
Полное имя : Y:\Сериалы 2014\Танкисты своих не бросают (2014)\Танкисты своих не бросают.(01.seriya).2014.XviD.SATRip.by.simka.avi
Формат : AVI
Формат/Информация : Audio Video Interleave
Размер файла : 538 Мбайт
Продолжительность : 47 м.
Общий поток : 1602 Кбит/сек
Программа кодирования : VirtualDubModRus 1.5.10.2 (build 2542/release)
Библиотека кодирования : VirtualDubMod build 2542/release

Видео
Идентификатор : 0
Формат : MPEG-4 Visual
Профиль формата : Advanced Simple@L5
Параметр BVOP формата : 1
Параметр QPel формата : Нет
Параметр GMC формата : Без точки перехода
Параметр матрицы формата : Default (MPEG)
Идентификатор кодека : XVID
Идентификатор кодека/Подсказка : XviD
Продолжительность : 47 м.
Битрейт : 1400 Кбит/сек
Ширина : 720 пикселей
Высота : 400 пикселей
Соотношение сторон : 16:9
Частота кадров : 25,000 кадров/сек
Цветовое пространство : YUV
Субдискретизация насыщенности : 4:2:0
Битовая глубина : 8 бит
Тип развёртки : Прогрессивная
Метод сжатия : С потерями
Бит/(Пиксели*Кадры) : 0.194
Размер потока : 471 Мбайт (87%)
Библиотека кодирования : XviD 1.2.1 (UTC 2008-12-04)

Аудио
Идентификатор : 1
Формат : MPEG Audio
Версия формата : Version 1
Профиль формата : Layer 3
Режим : Joint stereo
Расширение режима : MS Stereo
Идентификатор кодека : 55
Идентификатор кодека/Подсказка : MP3
Продолжительность : 47 м.
Вид битрейта : Постоянный
Битрейт : 192 Кбит/сек
Каналы : 2 канала
Частота : 48,0 КГц
Метод сжатия : С потерями
Размер потока : 64,5 Мбайт (12%)
Выравнивание : Соединение по промежуткам
Продолжительность промежутка : 40 мс. (1,00 видеокадр)
Время предзагрузки промежутка : 504 мс.
Библиотека кодирования : LAME3.99r
Настройки программы : -m j -V 4 -q 2 -lowpass 18.6 -b 192


Скриншоты
http://firepic.org/?v=2.2014-04-26_s4x5fj6dchpn.png
http://firepic.org/?v=2.2014-04-26_i91kysfn3l67.png
http://firepic.org/?v=2.2014-04-26_aizvf7txzhs6.png
http://firepic.org/?v=2.2014-04-26_qn0tup83nxcb.png
http://firepic.org/?v=2.2014-04-26_gio0tk6usufy.png
http://firepic.org/?v=2.2014-04-26_rzmh75cnhc82.png
http://firepic.org/?v=2.2014-04-26_r5u6sx7z7lyq.png
http://firepic.org/?v=2.2014-04-26_vtadg3u6e239.png


-------------

Внимание! Раздача ведётся путём добавления новых выпусков
При каждом добавлении создаётся новый торрент. Чтобы начать докачку нового выпуска, пользователям необходимо сделать следующее:
П остановить скачивание;
П удалить старый торрент у себя из клиента (старые выпуски удалять не надо);
П скачать новый торрент и запустить его у себя в клиенте вместо старого, при этом указать клиенту путь в старую папку куда и должно происходить скачивание новых выпусков;
П ваш клиент при запуске должен произвести хеширование (проверку) старой папки (если не производит сам - помогите ему сделать это), и будет докачивать только те выпуски, которых у вас ещё нет. Старые выпуски при этом не удаляются, а продолжают раздаваться!, Конец фильма!
П Eсли вы уже удалили старые выпуски, то предотвратить повторную закачку старых выпусков можно, отжав галочку в соответсвующих местах при запуске нового торрента.

Добавлена 4-я серия
Похожие файлы
Загрузка / Обновление
КатегорияСериалы RSS лента
Просмотров107 раз (a)
Взят1 раз (a)
Файлы4
Размер2.12 GB (2,274,050,048 байт)
Добавлен
РаздалViKa  (Искать торренты)
Участники
Участники - Загрузка / Обновление
Просматривают Просматривают Загрузка...

-†- ¿? -†-
« Предыдущая - † Страница † - Следующая »

:: Список Комментариев
Нет комментариев.

 Нет комментариев
Вам запрещенно редактировать, создать или удалять комментарии.
shpv© 2007-2014
Страничка сформирована за 1.018 секунд.
Яндекс.Метрика Rambler's Top100