скачать торрент трекер Friends
 
 Главная  •  Торренты  •  Новые релизы  •  Форум  •   •  Персоны кино  •  Правила  •  ЧаВо

Язык интерфейса
Язык интерфейса:


Привет, Гость
[15] из [15]
Введите Логин:
Введите Пароль:
Регистрация
Восстановить Пароль

Линки
АнекдотыБанкоматВсе теги / меткиДополнительные услугиТехподдержка

Главное Меню
 Главная Торренты Релизы за сегодня Персоны кино Запросы / Предложения (3) Правила ЧаВо Проверка BB кодов Топ 10 Архив новостей Прошлые опросы Форматы файлов Группы Последние комментарии Техподдержка

:: Детали раздачи
Торрент раздача является мультитрекерной — учтите, количество раздающих не будет совпадать с количеством участников на сайте (скачивание на клиентской стороне зависит от настроек uTorrent клиент программы, настройки -> Включить DHT, Обмен пирами и Поиск лок-х пиров).
Если висит надпись, пиры по нулям - не бойтесь, возможность скачать повторно торрент раздачу - есть. Попробуйте, в случае отказа - прокоментируйте или нажмите на "Позвать скачавших".

На Одном Дыхании / Серии: 1-4 из 4 (Александр Соловьёв)

Скачать
Магнет
ПомощьКак скачать раздачу
Поделиться
Теги / Меткидетектив, экранизация
Постер
ОписаниеГод выпуска: 2014
Производство: Свэлл Фильм
Жанр: Детектив, Экранизация
Продолжительность: ~ 00:45:00
Субтитры: Отсутствуют

Режиссёр: Александр Соловьёв

В ролях: Дарья Чаруша, Андрей Биланов, Ирина Гринева, Валерий Трошин, Алексей Юдников, Ольга Волкова, Олег Марусев, Екатерина Соловьева

Описание: Экранизация романа Татьяны Устиновой. Владимир Разлогов – успешный бизнесмен. Главный его помощник – заместитель Марк Волошин, с которым Разлогов дружит со студенческих лет. Владимир счастлив и в личной жизни: жена Глафира очень любит мужа, и у него сохранились хорошие отношения с бывшей супругой Мариной – известной актрисой. Но однажды всё меняется...

Все раздачи сериала: Все раздачи сериала

Сэмпл: http://multi-up.com/969722

Качество: SATRip
Формат: AVI
Видео кодек: XviD
Аудио кодек: MP3
Видео: XVID, 720x400, (16:9) 25,000 кадров/сек, 1801 Кбит/сек, 0.250 bit/pixel
Аудио: MP3, 48,0 КГц, 128 Кбит/сек (2 канала)

Реклама руфильма есть

MI
ормат : AVI
Формат/Информация : Audio Video Interleave
Размер файла : 619 Мбайт
Продолжительность : 44 м.
Общий поток : 1938 Кбит/сек
Библиотека кодирования : VirtualDub build 32817/release

Видео
Идентификатор : 0
Формат : MPEG-4 Visual
Профиль формата : Advanced Simple@L5
Параметр BVOP формата : 2
Параметр QPel формата : Нет
Параметр GMC формата : Без точки перехода
Параметр матрицы формата : Default (MPEG)
Идентификатор кодека : XVID
Идентификатор кодека/Подсказка : XviD
Продолжительность : 44 м.
Битрейт : 1801 Кбит/сек
Ширина : 720 пикселей
Высота : 400 пикселей
Соотношение сторон : 16:9
Частота кадров : 25,000 кадров/сек
Цветовое пространство : YUV
Субдискретизация насыщенности : 4:2:0
Битовая глубина : 8 бит
Тип развёртки : Прогрессивная
Метод сжатия : С потерями
Бит/(Пиксели*Кадры) : 0.250
Размер потока : 575 Мбайт (93%)
Библиотека кодирования : XviD 1.2.1 (UTC 2008-12-04)

Аудио
Идентификатор : 1
Формат : MPEG Audio
Версия формата : Version 1
Профиль формата : Layer 3
Режим : Joint stereo
Расширение режима : MS Stereo
Идентификатор кодека : 55
Идентификатор кодека/Подсказка : MP3
Продолжительность : 44 м.
Вид битрейта : Постоянный
Битрейт : 128 Кбит/сек
Каналы : 2 канала
Частота : 48,0 КГц
Метод сжатия : С потерями
Размер потока : 40,9 Мбайт (7%)
Выравнивание : Разделение по промежуткам
Продолжительность промежутка : 40 мс. (1,00 видеокадр)
Время предзагрузки промежутка : 500 мс.


Скриншоты
http://i56.fastpic.ru/thumb/2014/0426/4f/e736b0625ea1fd65cb74c0e2c706bd4f.jpeg http://i55.fastpic.ru/thumb/2014/0426/74/3e54b9d8a99945f8f6c4d62951ce0174.jpeg http://i55.fastpic.ru/thumb/2014/0426/68/6c49fe96632738fd73e8b10070eed368.jpeg http://i56.fastpic.ru/thumb/2014/0426/06/06f039303ad5044776d95f9654e81806.jpeg http://i56.fastpic.ru/thumb/2014/0426/3d/29b498b842d5dc345f1396d3c7b15c3d.jpeg
Похожие файлы
Загрузка / Обновление
КатегорияСериалы RSS лента
Просмотров119 раз (a)
Взят1 раз (a)
Файлы4
Размер2.37 GB (2,548,303,450 байт)
Добавлен
РаздалViKa  (Искать торренты)
Участники
Участники - Загрузка / Обновление
Просматривают Просматривают Загрузка...

-†- ¿? -†-
« Предыдущая - † Страница † - Следующая »

:: Список Комментариев
Нет комментариев.

 Нет комментариев
Вам запрещенно редактировать, создать или удалять комментарии.
shpv© 2007-2014
Страничка сформирована за 0.063 секунд.
Яндекс.Метрика Rambler's Top100