скачать торрент трекер Friends
 
 Главная  •  Торренты  •  Новые релизы  •  Форум  •   •  Персоны кино  •  Правила  •  ЧаВо

Язык интерфейса
Язык интерфейса:


Привет, Гость
[15] из [15]
Введите Логин:
Введите Пароль:
Регистрация
Восстановить Пароль

Линки
АнекдотыБанкоматВсе теги / меткиДополнительные услугиТехподдержка

Главное Меню
 Главная Торренты Релизы за сегодня Персоны кино Запросы / Предложения (3) Правила ЧаВо Проверка BB кодов Топ 10 Архив новостей Прошлые опросы Форматы файлов Группы Последние комментарии Техподдержка

:: Детали раздачи
Торрент раздача является мультитрекерной — учтите, количество раздающих не будет совпадать с количеством участников на сайте (скачивание на клиентской стороне зависит от настроек uTorrent клиент программы, настройки -> Включить DHT, Обмен пирами и Поиск лок-х пиров).
Если висит надпись, пиры по нулям - не бойтесь, возможность скачать повторно торрент раздачу - есть. Попробуйте, в случае отказа - прокоментируйте или нажмите на "Позвать скачавших".

Эклер / Eclair (Акио Кондо / Akio Kondo) [2011, Япония, Драма, DVDRip] VO D.I.M.

Скачать
Магнет
ПомощьКак скачать раздачу
Поделиться
Теги / Меткидрама
Постер
ОписаниеСтрана: Япония
Жанр: Драма
Год выпуска: 2011
Продолжительность: 1:44:48

Перевод: Одноголосый закадровый D.I.M.
Cубтитры: нет
Режиссер: Акио Кондо / Akio Kondo

В ролях: Саори / Saori
Кадзутака Ёшии / Kazutaka Yoshii
Акинори Андо / Akinori Ando
Исао Бито / Isao Bito
Кенити Эндо / Ken'ichi Endo
Аюми Исида / Ayumi Ishida

Описание: Эмоциональная драма, основанная
на автобиографическом романе Нисимуры Сигеру.
В начале весны 1943 года, мальчишку Акио поймали
за кражу с голода конфет. Офицер Тояма угощает его
сладкими булочками, и тогда мальчишка впервые испытывает
доброту от других людей. Но всё же его отправляют
в исправительную школу, где ему придётся пережить трудные времена...

На песни в фильме голосового перевода нет, только вшитые субтитры.

Это девяностый фильм с моим переводом и озвучкой, выложенный здесь.

А здесь все мои раздачи http://rutracker.org/forum/tracker.php?rid=1940569#results.
Любители душевного кино могут найти для себя что-то интересное.

Сэмпл: http://multi-up.com/969632

Качество видео: DVDRip
Формат видео: AVI

Видео: 720*416(16:9), 23,976 fps, MPEG-4 Visual (XviD) ~ 812 kbps avg, 0.113 bit/pixel
Аудио: MPEG Audio Layer 3, 48000Hz, stereo, 128kbps

MediaInfo
Общее
Полное имя : D:\TORENT\РАЗДАЧИ (РИПЫ)\ECLAIR.avi
Формат : AVI
Формат/Информация : Audio Video Interleave
Размер файла : 712 Мбайт
Продолжительность : 1 ч. 44 м.
Общий поток : 950 Кбит/сек
Программа кодирования : VirtualDubModRus 1.5.10.2 (build 2542/release)
Библиотека кодирования : VirtualDubMod build 2542/release

Видео
Идентификатор : 0
Формат : MPEG-4 Visual
Профиль формата : Advanced Simple@L5
Параметр BVOP формата : 1
Параметр QPel формата : Нет
Параметр GMC формата : Без точки перехода
Параметр матрицы формата : Выборочная
Идентификатор кодека : XVID
Идентификатор кодека/Подсказка : XviD
Продолжительность : 1 ч. 44 м.
Битрейт : 812 Кбит/сек
Ширина : 720 пикс.
Высота : 416 пикс.
Соотношение сторон : 16:9
Частота кадров : 23,976 кадр/сек
Цветовое пространство : YUV
Подвыборка цветности : 4:2:0
Битовая глубина : 8 бит
Тип развёртки : Прогрессивная
Метод сжатия : С потерями
Бит/(Пиксели*Кадры) : 0.113
Размер потока : 609 Мбайт (86%)
Библиотека кодирования : XviD 63

Аудио
Идентификатор : 1
Формат : MPEG Audio
Версия формата : Version 1
Профиль формата : Layer 3
Режим : Joint stereo
Расширение режима : MS Stereo
Идентификатор кодека : 55
Идентификатор кодека/Подсказка : MP3
Продолжительность : 1 ч. 44 м.
Вид битрейта : Постоянный
Битрейт : 128 Кбит/сек
Канал(ы) : 2 канала(ов)
Частота : 48,0 КГц
Метод сжатия : С потерями
Размер потока : 96,0 Мбайт (13%)
Выравнивание : Соединение по промежуткам
Продолжительность промежутка : 42 мс. (1,00 видеокадр)
Время предзагрузки промежутка : 504 ms
Библиотека кодирования : LAME3.98.2ЄЄЄЄЄЄЄЄЄЄ
Язык : Russian


Скриншот c названием фильма
http://i55.fastpic.ru/thumb/2014/0426/64/53ca89fd211beffdef73bc7172d04164.jpeg


Скриншоты
[img]http://i56.fastpic.ru/thumb/2014/0426/79/3f021c96270d392ee9a3e644a6cf1379.jpeg[/img][img]http://i56.fastpic.ru/thumb/2014/0426/f8/3f8659266ea55a86673d27dd0820e3f8.jpeg[/img][img]http://i55.fastpic.ru/thumb/2014/0426/47/b7327238399749e870f664edf61ff347.jpeg[/img][img]http://i56.fastpic.ru/thumb/2014/0426/b4/724b42179b58976e47edba8300382bb4.jpeg" alt="http://i56.fastpic.ru/thumb/2014/0426/b4/bae1545cce40ded1c9f0b1f1ac0c20b4.jpeg[/img][img]http://i56.fastpic.ru/thumb/2014/0426/79/3f021c96270d392ee9a3e644a6cf1379.jpeg[/img][img]http://i56.fastpic.ru/thumb/2014/0426/f8/3f8659266ea55a86673d27dd0820e3f8.jpeg[/img][img]http://i55.fastpic.ru/thumb/2014/0426/47/b7327238399749e870f664edf61ff347.jpeg[/img][img]http://i56.fastpic.ru/thumb/2014/0426/b4/724b42179b58976e47edba8300382bb4.jpeg" />
Похожие файлы
Загрузка / Обновление
КатегорияФильмы DVD RSS лента
Просмотров110 раз (a)
Взят0 раз (a)
Файлы1
Размер712.04 MB (746,631,168 байт)
Добавлен
РаздалViKa  (Искать торренты)
Участники
Участники - Загрузка / Обновление
Просматривают Просматривают Загрузка...

-†- ¿? -†-
« Предыдущая - † Страница † - Следующая »

:: Список Комментариев
Нет комментариев.

 Нет комментариев
Вам запрещенно редактировать, создать или удалять комментарии.
shpv© 2007-2014
Страничка сформирована за 0.064 секунд.
Яндекс.Метрика Rambler's Top100