скачать торрент трекер Friends
 
 Главная  •  Торренты  •  Новые релизы  •  Форум  •   •  Персоны кино  •  Правила  •  ЧаВо

Язык интерфейса
Язык интерфейса:


Привет, Гость
[15] из [15]
Введите Логин:
Введите Пароль:
Регистрация
Восстановить Пароль

Линки
АнекдотыБанкоматВсе теги / меткиДополнительные услугиТехподдержка

Главное Меню
 Главная Торренты Релизы за сегодня Персоны кино Запросы / Предложения (3) Правила ЧаВо Проверка BB кодов Топ 10 Архив новостей Прошлые опросы Форматы файлов Группы Последние комментарии Техподдержка

:: Детали раздачи
Торрент раздача является мультитрекерной — учтите, количество раздающих не будет совпадать с количеством участников на сайте (скачивание на клиентской стороне зависит от настроек uTorrent клиент программы, настройки -> Включить DHT, Обмен пирами и Поиск лок-х пиров).
Если висит надпись, пиры по нулям - не бойтесь, возможность скачать повторно торрент раздачу - есть. Попробуйте, в случае отказа - прокоментируйте или нажмите на "Позвать скачавших".

История чужой любви / Kærlighed på film / Just another love story (Оле Борнедаль / Ole Bornedal) [2007, Дания, Триллер, драма, криминал, BDRip] DVO (НТВ+)

Скачать
Магнет
ПомощьКак скачать раздачу
Поделиться
Теги / Меткитриллер, драма, криминал
Постер
ОписаниеСтрана: Дания
Жанр: Триллер, драма, криминал
Год выпуска: 2007
Продолжительность: 01:40:12

Перевод: Профессиональный (двухголосый закадровый) НТВ+
Cубтитры: нет
Режиссер: Оле Борнедаль / Ole Bornedal

В ролях: Андерс В. Бертельсен, Николай Ли Каас, Шарлотта Фич, Деян Чукич, Флемминг Эневольд, Бент Мейдинг, Ева Фрёлинг

Описание: Йонас, примерный семьянин, работает фотографом-криминалистом. Он страдает от типично городской хандры, пока не попадает в дорожно-транспортное происшествие. Жертву ДТП, Юлию, без сознания доставляют в больницу. Любопытство подталкивает Йонаса к тому, чтобы навестить Юлию, причём её семья принимает его за бойфренда девушки — Себастьяна, которого они прежде никогда не встречали. Йонас с готовностью примеряет на себя эту роль. Когда Юлия приходит в сознание, выясняется, что у неё амнезия. Вдохновлённый тем, что его обман не раскрыли, Йонас продолжает жить чужой жизнью. Но воспоминания имеют свойство возвращаться. Впрочем, бойфренды тоже.

Доп. информация: Релиз http://i4.imageban.ru/out/2013/06/05/d192849498ee42d33fa2f46f986f4e91.gif

http://rating.kinopoisk.ru/311732.gif IMDb: 7.30 (3075)

Качество видео: BDRip [Just.Another.love.story.2011.BD-Remux.HDCLUB]
Формат видео: AVI

Видео: 720x304 (2.37:1), 25 fps, XviD build 50 ~1879 kbps avg, 0.34 bit/pixel
Аудио: 48 kHz, AC3 Dolby Digital, 2/0 (L,R) ch, ~192 kbps

MediaInfo
История чужой любви - Kaerlighed pa film [by Edich2].avi
Format : AVI
Format/Info : Audio Video Interleave
File size : 1.46 GiB
Duration : 1h 40mn
Overall bit rate : 2 081 Kbps
Movie name : История чужой любви - Kaerlighed pa film [by Edich2]
Director : Rip by Edich2
Writing application : VirtualDubMod 1.5.10.3 | www.virtualdub-fr.org || (build 2550/release)
Comment : RuTracker.org

Video
ID : 0
Format : MPEG-4 Visual
Format profile : Advanced Simple@L5
Format settings, BVOP : 2
Format settings, QPel : No
Format settings, GMC : No warppoints
Format settings, Matrix : Custom
Codec ID : XVID
Codec ID/Hint : XviD
Duration : 1h 40mn
Bit rate : 1 880 Kbps
Width : 720 pixels
Height : 304 pixels
Display aspect ratio : 2.35:1
Frame rate : 25.000 fps
Color space : YUV
Chroma subsampling : 4:2:0
Bit depth : 8 bits
Scan type : Progressive
Compression mode : Lossy
Bits/(Pixel*Frame) : 0.344
Stream size : 1.32 GiB (90%)
Writing library : XviD 1.2.1 (UTC 2008-12-04)

Audio
ID : 1
Format : AC-3
Format/Info : Audio Coding 3
Mode extension : CM (complete main)
Format settings, Endianness : Big
Codec ID : 2000
Duration : 1h 40mn
Bit rate mode : Constant
Bit rate : 192 Kbps
Channel count : 2 channels
Channel positions : Front: L R
Sampling rate : 48.0 KHz
Bit depth : 16 bits
Compression mode : Lossy
Stream size : 137 MiB (9%)
Alignment : Split accross interleaves
Interleave, duration : 40 ms (1.00 video frame)
Interleave, preload duration : 500 ms


Скриншоты
http://i1.imageban.ru/out/2014/04/26/15b923f344bae0d632a4a4d6fc1edad1.png
http://i5.imageban.ru/out/2014/04/26/5f9ca6df0fd2512e95915a38f6f67b5b.png
http://i6.imageban.ru/out/2014/04/26/75922941e91b688a2e2cc5c142013877.png


http://i1.imageban.ru/out/2014/04/26/6db1d8ce03bb546f838466e0647b4f7c.png
http://i5.imageban.ru/out/2014/04/26/21fb38622dd7949c7ebda159d34e5a9b.png
http://i6.imageban.ru/out/2014/04/26/70510b24f7507458f125de01ee1507f5.png
Скриншоты
Похожие файлы
Загрузка / Обновление
КатегорияФильмы AVI RSS лента
Просмотров158 раз (a)
Взят1 раз (a)
Файлы1
Размер1.46 GB (1,564,059,648 байт)
Добавлен
РаздалViKa  (Искать торренты)
Участники
Участники - Загрузка / Обновление
Просматривают Просматривают Загрузка...

-†- ¿? -†-
« Предыдущая - † Страница † - Следующая »

:: Список Комментариев
Нет комментариев.

 Нет комментариев
Вам запрещенно редактировать, создать или удалять комментарии.
shpv© 2007-2014
Страничка сформирована за 0.041 секунд.
Яндекс.Метрика Rambler's Top100