скачать торрент трекер Friends
 
 Главная  •  Торренты  •  Новые релизы  •  Форум  •   •  Персоны кино  •  Правила  •  ЧаВо

Язык интерфейса
Язык интерфейса:


Привет, Гость
[15] из [15]
Введите Логин:
Введите Пароль:
Регистрация
Восстановить Пароль

Линки
АнекдотыБанкоматВсе теги / меткиДополнительные услугиТехподдержка

Главное Меню
 Главная Торренты Релизы за сегодня Персоны кино Запросы / Предложения (3) Правила ЧаВо Проверка BB кодов Топ 10 Архив новостей Прошлые опросы Форматы файлов Группы Последние комментарии Техподдержка

:: Детали раздачи
Торрент раздача является мультитрекерной — учтите, количество раздающих не будет совпадать с количеством участников на сайте (скачивание на клиентской стороне зависит от настроек uTorrent клиент программы, настройки -> Включить DHT, Обмен пирами и Поиск лок-х пиров).
Если висит надпись, пиры по нулям - не бойтесь, возможность скачать повторно торрент раздачу - есть. Попробуйте, в случае отказа - прокоментируйте или нажмите на "Позвать скачавших".

Сарабанда Бинг Бинг / Балеарская операция "Золото" / Zarabanda Bing Bing / Baleari Operazione Oro (Хосе Мария Форке / José María Forqué) [1966, Испания, Италия, Франция, приключения, комедия, DVDRip] VO (SATKUR)

Скачать
Магнет
ПомощьКак скачать раздачу
Поделиться
Теги / Меткиприключения, комедия
Постер
ОписаниеСтрана: Испания, Италия, Франция
Жанр: приключения, комедия
Год выпуска: 1966
Продолжительность: 01:29:20

Перевод: Одноголосый закадровый SATKUR по субтитрам Антона Каптелова
Cубтитры: нет
Оригинальная аудиодорожка: нет

Режиссер: Хосе Мария Форке / Josй Marнa Forquй

В ролях: Жак Серна, Даниэла Бьянки, Мирей Дарк, Харольд Саката, Марилу Толо, Хосе Луис Лопес Васкес, Венантино Венантини, Уилли Элли, Гильермо Марин, Марио Моралес

Описание: Ибица, жемчужина Балеарских островов.
Со дна моря поднят древний скипетр. За реликвией начинается охота спецслужб и мошенников всех мастей. Каждый жаждет, чтоб драгоценный артефакт достался именно ему.

Сэмпл: http://multi-up.com/969657

Качество видео: DVDRip
Формат видео: AVI

Видео: Xvid 608x384 25fps 2 117 Kbps
Аудио: Dolby AC3 48000Hz stereo 192kbps

MediaInfo
General
Complete name : C:\Users\Вика\Desktop\Zarabanda.Bing.Bing.1966.DVDRip.avi
Format : AVI
Format/Info : Audio Video Interleave
File size : 1.45 GiB
Duration : 1h 29mn
Overall bit rate : 2 318 Kbps
Writing application : VirtualDubMod 1.5.10.2 (build 2540/release)
Writing library : VirtualDubMod build 2540/release

Video
ID : 0
Format : MPEG-4 Visual
Format profile : Simple@L1
Format settings, BVOP : No
Format settings, QPel : No
Format settings, GMC : No warppoints
Format settings, Matrix : Default (H.263)
Codec ID : XVID
Codec ID/Hint : XviD
Duration : 1h 29mn
Bit rate : 2 117 Kbps
Width : 608 pixels
Height : 384 pixels
Display aspect ratio : 16:10
Frame rate : 25.000 fps
Color space : YUV
Chroma subsampling : 4:2:0
Bit depth : 8 bits
Scan type : Progressive
Compression mode : Lossy
Bits/(Pixel*Frame) : 0.363
Stream size : 1.32 GiB (91%)
Writing library : Lavc52.84.0

Audio
ID : 1
Format : AC-3
Format/Info : Audio Coding 3
Mode extension : CM (complete main)
Format settings, Endianness : Big
Codec ID : 2000
Duration : 1h 29mn
Bit rate mode : Constant
Bit rate : 192 Kbps
Channel count : 2 channels
Channel positions : Front: L R
Sampling rate : 48.0 KHz
Bit depth : 16 bits
Compression mode : Lossy
Stream size : 123 MiB (8%)
Alignment : Split accross interleaves
Interleave, duration : 40 ms (1.00 video frame)
Interleave, preload duration : 500 ms


Скриншот c названием фильма
http://i55.fastpic.ru/thumb/2014/0426/c9/a58fd76826531489403160c6de33d2c9.jpeg


Скриншоты
[img]http://i55.fastpic.ru/thumb/2014/0426/da/6d5e392b7454279b9bc623c2527d9bda.jpeg[/img][img]http://i55.fastpic.ru/thumb/2014/0426/f9/40e35cb5e7d69c6bd0ca67fcc86796f9.jpeg[/img][img]http://i55.fastpic.ru/thumb/2014/0426/19/2eb03e1a09b8dec1a63f979cc945b019.jpeg" alt="http://i55.fastpic.ru/thumb/2014/0426/89/6e814cf225876a922ab8f8184634e689.jpeg[/img][img]http://i55.fastpic.ru/thumb/2014/0426/da/6d5e392b7454279b9bc623c2527d9bda.jpeg[/img][img]http://i55.fastpic.ru/thumb/2014/0426/f9/40e35cb5e7d69c6bd0ca67fcc86796f9.jpeg[/img][img]http://i55.fastpic.ru/thumb/2014/0426/19/2eb03e1a09b8dec1a63f979cc945b019.jpeg" />
Похожие файлы
Загрузка / Обновление
КатегорияФильмы DVD RSS лента
Просмотров153 раз (a)
Взят1 раз (a)
Файлы1
Размер1.45 GB (1,553,131,520 байт)
Добавлен
РаздалViKa  (Искать торренты)
Участники
Участники - Загрузка / Обновление
Просматривают Просматривают Загрузка...

-†- ¿? -†-
« Предыдущая - † Страница † - Следующая »

:: Список Комментариев
Нет комментариев.

 Нет комментариев
Вам запрещенно редактировать, создать или удалять комментарии.
shpv© 2007-2014
Страничка сформирована за 0.536 секунд.
Яндекс.Метрика Rambler's Top100