скачать торрент трекер Friends
 
 Главная  •  Торренты  •  Новые релизы  •  Форум  •   •  Персоны кино  •  Правила  •  ЧаВо

Язык интерфейса
Язык интерфейса:


Привет, Гость
[15] из [15]
Введите Логин:
Введите Пароль:
Регистрация
Восстановить Пароль

Линки
АнекдотыБанкоматВсе теги / меткиДополнительные услугиТехподдержка

Главное Меню
 Главная Торренты Релизы за сегодня Персоны кино Запросы / Предложения (3) Правила ЧаВо Проверка BB кодов Топ 10 Архив новостей Прошлые опросы Форматы файлов Группы Последние комментарии Техподдержка

:: Детали раздачи
Торрент раздача является мультитрекерной — учтите, количество раздающих не будет совпадать с количеством участников на сайте (скачивание на клиентской стороне зависит от настроек uTorrent клиент программы, настройки -> Включить DHT, Обмен пирами и Поиск лок-х пиров).
Если висит надпись, пиры по нулям - не бойтесь, возможность скачать повторно торрент раздачу - есть. Попробуйте, в случае отказа - прокоментируйте или нажмите на "Позвать скачавших".

Мрачные тени / Dark Shadows (Тим Бёртон / Tim Burton) [2012, США, фэнтези, мелодрама, комедия, HDRip] AVO (Володарский)

Скачать
Магнет
ПомощьКак скачать раздачу
Поделиться
Теги / Меткифэнтези, мелодрама, комедия
Постер
ОписаниеСтрана: США
Жанр: фэнтези, мелодрама, комедия
Год выпуска: 2012
Продолжительность: 01:53:04
Перевод: Авторский (одноголосый закадровый) Володарский
Cубтитры: нет

Режиссер: Тим Бёртон / Tim Burton

В ролях: Джонни Депп (Barnabas Collins), Мишель Пфайффер (Elizabeth Collins Stoddard), Хелена Бонем Картер (Dr. Julia Hoffman), Ева Грин (Angelique Bouchard), Джеки Эрл Хейли (Willie Loomis), Джонни Ли Миллер (Roger Collins), Белла Хиткот (Victoria Winters / Josette DuPres), Хлоя Грейс Морец (Carolyn Stoddard), Гулливер МакГрат (David Collins), Кристофер Ли (Clarney), Уильям Хоуп (Sheriff), Рэй Ширли (Mrs. Johnson).

Описание: Владелец поместья Коллинвуд, Барнабас Коллинз, богат, властен и слывет неисправимым Казановой, пока не совершает роковую ошибку, разбив сердце Анжелики Бошар. Будучи ведьмой в буквальном смысле этого слова, она обрекает его на судьбу, худшую, чем сама смерть — обращает его в вампира и хоронит заживо. Два века спустя Барнабаса случайно освобождают из склепа, и тот оказывается в очень изменившемся мире 1972 года. Он возвращается в Коллинвуд и находит в руинах это некогда величественное здание. Жалкие потомки его семьи сохранились лишь немногим лучше родового гнезда, и у каждого из них есть свои «скелеты в шкафу».

Качество видео: HDRip
Формат видео: AVI | Sample
Видео: 704x400 (1.76:1), 23.976 fps, XviD build 73 ~1380 kbps avg, 0.20 bit/pixel
Аудио: 48 kHz, AC3 Dolby Digital, 3/2 (L,C,R,l,r) + LFE ch, ~448.00 kbps avg

Скриншоты
[img]http://i1.imageban.ru/thumbs/2014.04.26/0637793d7feba6a0398001066b9f131d.png[/img][img]http://i6.imageban.ru/thumbs/2014.04.26/ac7c810483cfc305abbacaf2c2955b71.png[/img][img]http://i5.imageban.ru/thumbs/2014.04.26/ae4a79d1a4b6a6488946ab5edaa4c6ae.png" alt="http://i6.imageban.ru/thumbs/2014.04.26/9134c89ce8e3347fe8db373245e7f652.png[/img][img]http://i1.imageban.ru/thumbs/2014.04.26/0637793d7feba6a0398001066b9f131d.png[/img][img]http://i6.imageban.ru/thumbs/2014.04.26/ac7c810483cfc305abbacaf2c2955b71.png[/img][img]http://i5.imageban.ru/thumbs/2014.04.26/ae4a79d1a4b6a6488946ab5edaa4c6ae.png" />


Медиаинфо
Общее
Формат : AVI
Формат/Информация : Audio Video Interleave
Размер файла : 1,45 Гбайт
Продолжительность : 1 ч. 53 м.
Общий поток : 1837 Кбит/сек
Программа кодирования : VirtualDubMod 1.5.10.3 | www.virtualdub-fr.org || (build 2550/release)
Библиотека кодирования : VirtualDubMod build 2550/release

Видео
Идентификатор : 0
Формат : MPEG-4 Visual
Профиль формата : Advanced Simple@L5
Параметр BVOP формата : 1
Параметр QPel формата : Нет
Параметр GMC формата : Без точки перехода
Параметр матрицы формата : Выборочная
Идентификатор кодека : XVID
Идентификатор кодека/Подсказка : XviD
Продолжительность : 1 ч. 53 м.
Битрейт : 1380 Кбит/сек
Ширина : 704 пикселя
Высота : 400 пикселей
Соотношение сторон : 16:9
Частота кадров : 23,976 кадра/сек
Цветовое пространство : YUV
Субдискретизация насыщенности : 4:2:0
Битовая глубина : 8 бит
Тип развёртки : Прогрессивная
Метод сжатия : С потерями
Бит/(Пиксели*Кадры) : 0.204
Размер потока : 1,09 Гбайт (75%)
Библиотека кодирования : XviD 73

Аудио
Идентификатор : 1
Формат : AC-3
Формат/Информация : Audio Coding 3
Расширение режима : CM (complete main)
Параметр Endianness формата : Big
Идентификатор кодека : 2000
Продолжительность : 1 ч. 53 м.
Вид битрейта : Постоянный
Битрейт : 448 Кбит/сек
Каналы : 6 каналов
Расположение каналов : Front: L C R, Side: L R, LFE
Частота : 48,0 КГц
Битовая глубина : 16 бит
Метод сжатия : С потерями
Размер потока : 362 Мбайт (24%)
Выравнивание : Разделение по промежуткам
Продолжительность промежутка : 42 мс. (1,00 видеокадр)
Время предзагрузки промежутка : 500 мс.
Похожие файлы
Загрузка / Обновление
КатегорияФильмы AVI RSS лента
Просмотров134 раз (a)
Взят0 раз (a)
Файлы1
Размер1.45 GB (1,558,157,312 байт)
Добавлен
РаздалViKa  (Искать торренты)
Участники
Участники - Загрузка / Обновление
Просматривают Просматривают Загрузка...

-†- ¿? -†-
« Предыдущая - † Страница † - Следующая »

:: Список Комментариев
Нет комментариев.

 Нет комментариев
Вам запрещенно редактировать, создать или удалять комментарии.
shpv© 2007-2014
Страничка сформирована за 0.818 секунд.
Яндекс.Метрика Rambler's Top100