скачать торрент трекер Friends
 
 Главная  •  Торренты  •  Новые релизы  •  Форум  •   •  Персоны кино  •  Правила  •  ЧаВо

Язык интерфейса
Язык интерфейса:


Привет, Гость
[15] из [15]
Введите Логин:
Введите Пароль:
Регистрация
Восстановить Пароль

Линки
АнекдотыБанкоматВсе теги / меткиДополнительные услугиТехподдержка

Главное Меню
 Главная Торренты Релизы за сегодня Персоны кино Запросы / Предложения (3) Правила ЧаВо Проверка BB кодов Топ 10 Архив новостей Прошлые опросы Форматы файлов Группы Последние комментарии Техподдержка

:: Детали раздачи
Торрент раздача является мультитрекерной — учтите, количество раздающих не будет совпадать с количеством участников на сайте (скачивание на клиентской стороне зависит от настроек uTorrent клиент программы, настройки -> Включить DHT, Обмен пирами и Поиск лок-х пиров).
Если висит надпись, пиры по нулям - не бойтесь, возможность скачать повторно торрент раздачу - есть. Попробуйте, в случае отказа - прокоментируйте или нажмите на "Позвать скачавших".

Внутреннее Пространство / Внутренний Космос / Innerspace (Джо Данте / Joe Dante) [1987, США, фантастика, комедия, приключения, HDTVRip] MVO (НТВ)

Скачать
Магнет
ПомощьКак скачать раздачу
Поделиться
Теги / Меткифантастика, комедия, приключения
Постер
ОписаниеСтрана: США
Жанр: фантастика, комедия, приключения
Год выпуска: 1987
Продолжительность: 01:54:44

Перевод: Профессиональный (многоголосый закадровый) НТВ
Cубтитры: нет
Режиссер: Джо Данте / Joe Dante

В ролях: Деннис Куэйд, Мартин Шорт, Мег Райан, Кевин МакКарти, Фиона Льюис, Вернон Уэллс, Роберт Пикардо, Уэнди Шаал, Гарольд Сильвестр, Уильям Шэллерт

Описание: Американский пилот лейтенант Так Пендлтон принимает участие в эксперименте, в процессе которого он должен быть очень сильно уменьшен в размерах и в летательном аппарате, похожем на подлодку обследовать внутреннее пространство кролика. Но технотеррористы рушат все планы и похищают шприц, в котором находился миниатюризированый Так.

По ошибке содержимое шприца попадает в ипохондрика Джека Паттера. Теперь террористы начинают охотиться за ничего не подозревающим Джеком. Единственная, кто ему может помочь, это девушка Така — журналистка Лидия…

Благодарности:

Menen - за исходник видео.
team_6strun - за оцифровку перевода НТВ
JUSTKANT - за работу со звуком.
Текст Читали Елена Борзова, Алексей Инжеватов и Андрей Ярославцев.

Сэмпл: http://www.sendspace.com/file/owpyg7

Качество видео: HDTVRip
Формат видео: AVI

Видео: XviD, 704x400 (16:9), 25.000 fps, 1615 kbps avg
Аудио:
48 khz, AC3 Dolby Digital, 2/0 (L,R) ch, ~192 kbps [НТВ] VHSRip

MediaInfo
Общее
Полное имя : E:\Альберт\Downloads\Внутреннее Пространство.avi
Формат : AVI
Формат/Информация : Audio Video Interleave
Размер файла : 1,46 Гбайт
Продолжительность : 1 ч. 54 м.
Общий поток : 1817 Кбит/сек
Программа кодирования : VirtualDubMod 1.5.10.2 (build 2540/release)
Библиотека кодирования : VirtualDubMod build 2540/release

Видео
Идентификатор : 0
Формат : MPEG-4 Visual
Профиль формата : Advanced Simple@L5
Параметр BVOP формата : 1
Параметр QPel формата : Нет
Параметр GMC формата : Без точки перехода
Параметр матрицы формата : Выборочная
Идентификатор кодека : XVID
Идентификатор кодека/Подсказка : XviD
Продолжительность : 1 ч. 54 м.
Битрейт : 1615 Кбит/сек
Ширина : 704 пикселя
Высота : 400 пикселей
Соотношение сторон : 16:9
Частота кадров : 25,000 кадров/сек
Цветовое пространство : YUV
Субдискретизация насыщенности : 4:2:0
Битовая глубина : 8 бит
Тип развёртки : Прогрессивная
Метод сжатия : С потерями
Бит/(Пиксели*Кадры) : 0.229
Размер потока : 1,29 Гбайт (89%)
Библиотека кодирования : XviD 1.2.1 (UTC 2008-12-04)

Аудио
Идентификатор : 1
Формат : AC-3
Формат/Информация : Audio Coding 3
Расширение режима : CM (complete main)
Параметр Endianness формата : Big
Идентификатор кодека : 2000
Продолжительность : 1 ч. 54 м.
Вид битрейта : Постоянный
Битрейт : 192 Кбит/сек
Каналы : 2 канала
Расположение каналов : Front: L R
Частота : 48,0 КГц
Битовая глубина : 16 бит
Метод сжатия : С потерями
Размер потока : 158 Мбайт (11%)
Выравнивание : Разделение по промежуткам
Продолжительность промежутка : 40 мс. (1,00 видеокадр)
Время предзагрузки промежутка : 500 мс.


Скриншот c названием фильма
http://i56.fastpic.ru/thumb/2014/0426/24/a314871e0d4543732512e14b34eee424.jpeg


Скриншоты
http://i55.fastpic.ru/thumb/2014/0426/86/756573124fb23f5657b770522cc8d186.jpeg http://i55.fastpic.ru/thumb/2014/0426/6a/7923a0c638e956974a00d0a4ddffda6a.jpeg http://i55.fastpic.ru/thumb/2014/0426/c2/8a3dd402749bdad5f452fde6b1af2cc2.jpeg
Похожие файлы
Загрузка / Обновление
КатегорияФильмы AVI RSS лента
Просмотров142 раз (a)
Взят5 раз (a)
Файлы1
Размер1.46 GB (1,563,338,752 байт)
Добавлен
РаздалViKa  (Искать торренты)
Участники
Участники - Загрузка / Обновление
Просматривают Просматривают Загрузка...

-†- ¿? -†-
« Предыдущая - † Страница † - Следующая »

:: Список Комментариев
Нет комментариев.

 Нет комментариев
Вам запрещенно редактировать, создать или удалять комментарии.
shpv© 2007-2014
Страничка сформирована за 0.055 секунд.
Яндекс.Метрика Rambler's Top100