скачать торрент трекер Friends
 
 Главная  •  Торренты  •  Новые релизы  •  Форум  •   •  Персоны кино  •  Правила  •  ЧаВо

Язык интерфейса
Язык интерфейса:


Привет, Гость
[15] из [15]
Введите Логин:
Введите Пароль:
Регистрация
Восстановить Пароль

Линки
АнекдотыБанкоматВсе теги / меткиДополнительные услугиТехподдержка

Главное Меню
 Главная Торренты Релизы за сегодня Персоны кино Запросы / Предложения (3) Правила ЧаВо Проверка BB кодов Топ 10 Архив новостей Прошлые опросы Форматы файлов Группы Последние комментарии Техподдержка

:: Детали раздачи
Торрент раздача является мультитрекерной — учтите, количество раздающих не будет совпадать с количеством участников на сайте (скачивание на клиентской стороне зависит от настроек uTorrent клиент программы, настройки -> Включить DHT, Обмен пирами и Поиск лок-х пиров).
Если висит надпись, пиры по нулям - не бойтесь, возможность скачать повторно торрент раздачу - есть. Попробуйте, в случае отказа - прокоментируйте или нажмите на "Позвать скачавших".

Служить и защищать / To Protect and Serve (Эрик Уэстон / Eric Weston) [1992, США, боевик, триллер, DVDRip] VO (Неопознанный)

Скачать
Магнет
ПомощьКак скачать раздачу
Поделиться
Теги / Меткибоевик, триллер
Постер
ОписаниеСтрана: США
Жанр: боевик, триллер
Год выпуска: 1992
Продолжительность: 01:28:34

Перевод: Одноголосый закадровый Неопознанный
Cубтитры: нет
Оригинальная аудиодорожка: нет

Режиссер: Эрик Уэстон / Eric Weston

В ролях: Си Томас Хауэлл, Лесли Дин, Ричард Романус, Джозеф Кортезе, Стивен М. Ганьон, Джесси Лоуренс Фергюсон

Описание: Лос-Анджелес становится зоной жестоких и садистских убийств полицейских. Расследование поручено Эгану и Харриет. Им нужно во что бы то ни стало найти убийцу, пока не появились новые жертвы.

Доп. информация:
Видеоряд с Синемагеддона.
За звуковую дорожку большое спасибо team_6strun.
За видеоряд, синхронизацию звуковой дороги и работу со звуком огромная благодарность ale_x2008.

Сэмпл: http://sendfile.su/972287

Качество видео: DVDRip
Формат видео: AVI

Видео: 720x400, 25.000 fps, MPEG-4 Visual, 2005 Kbps, XviD 1.2.1
Аудио: 48 KHz, AC3, 2 ch, 192 Kbps

MediaInfo
General
Complete name : C:\Users\Сергей\Downloads\Служить и защищать.avi
Format : AVI
Format/Info : Audio Video Interleave
File size : 1.37 GiB
Duration : 1h 28mn
Overall bit rate : 2 207 Kbps

Video
ID : 0
Format : MPEG-4 Visual
Format profile : Advanced Simple@L5
Format settings, BVOP : 2
Format settings, QPel : No
Format settings, GMC : No warppoints
Format settings, Matrix : Default (H.263)
Codec ID : XVID
Codec ID/Hint : XviD
Duration : 1h 28mn
Bit rate : 2 005 Kbps
Width : 720 pixels
Height : 400 pixels
Display aspect ratio : 16:9
Frame rate : 25.000 fps
Color space : YUV
Chroma subsampling : 4:2:0
Bit depth : 8 bits
Scan type : Progressive
Compression mode : Lossy
Bits/(Pixel*Frame) : 0.278
Stream size : 1.24 GiB (91%)
Writing library : XviD 1.2.1 (UTC 2008-12-04)

Audio
ID : 1
Format : AC-3
Format/Info : Audio Coding 3
Mode extension : CM (complete main)
Format settings, Endianness : Big
Codec ID : 2000
Duration : 1h 28mn
Bit rate mode : Constant
Bit rate : 192 Kbps
Channel(s) : 2 channels
Channel positions : Front: L R
Sampling rate : 48.0 KHz
Bit depth : 16 bits
Compression mode : Lossy
Stream size : 122 MiB (9%)
Alignment : Split accross interleaves
Interleave, duration : 40 ms (1.00 video frame)
Interleave, preload duration : 500 ms


Скриншот c названием фильма
http://i55.fastpic.ru/thumb/2014/0426/28/4d1c5b3c5e2cafe8094c1b0c471a1f28.jpeg


Скриншоты
[img]http://i55.fastpic.ru/thumb/2014/0426/29/62385a05a3dd406d40a15a14026e6729.jpeg[/img][img]http://i55.fastpic.ru/thumb/2014/0426/75/1557fef00077ed5bc8094faee8c8e275.jpeg[/img][img]http://i56.fastpic.ru/thumb/2014/0426/04/9ac6342d953f71456660ca0adde84704.jpeg" alt="http://i55.fastpic.ru/thumb/2014/0426/c9/9d70c3825186093b27cb56475f4da6c9.jpeg[/img][img]http://i55.fastpic.ru/thumb/2014/0426/29/62385a05a3dd406d40a15a14026e6729.jpeg[/img][img]http://i55.fastpic.ru/thumb/2014/0426/75/1557fef00077ed5bc8094faee8c8e275.jpeg[/img][img]http://i56.fastpic.ru/thumb/2014/0426/04/9ac6342d953f71456660ca0adde84704.jpeg" />
Похожие файлы
Загрузка / Обновление
КатегорияФильмы DVD RSS лента
Просмотров147 раз (a)
Взят1 раз (a)
Файлы1
Размер1.37 GB (1,465,925,900 байт)
Добавлен
РаздалViKa  (Искать торренты)
Участники
Участники - Загрузка / Обновление
Просматривают Просматривают Загрузка...

-†- ¿? -†-
« Предыдущая - † Страница † - Следующая »

:: Список Комментариев
Нет комментариев.

 Нет комментариев
Вам запрещенно редактировать, создать или удалять комментарии.
shpv© 2007-2014
Страничка сформирована за 0.099 секунд.
Яндекс.Метрика Rambler's Top100