скачать торрент трекер Friends
 
 Главная  •  Торренты  •  Новые релизы  •  Форум  •   •  Персоны кино  •  Правила  •  ЧаВо

Язык интерфейса
Язык интерфейса:


Привет, Гость
[15] из [15]
Введите Логин:
Введите Пароль:
Регистрация
Восстановить Пароль

Линки
АнекдотыБанкоматВсе теги / меткиДополнительные услугиТехподдержка

Главное Меню
 Главная Торренты Релизы за сегодня Персоны кино Запросы / Предложения (3) Правила ЧаВо Проверка BB кодов Топ 10 Архив новостей Прошлые опросы Форматы файлов Группы Последние комментарии Техподдержка

:: Детали раздачи
Торрент раздача является мультитрекерной — учтите, количество раздающих не будет совпадать с количеством участников на сайте (скачивание на клиентской стороне зависит от настроек uTorrent клиент программы, настройки -> Включить DHT, Обмен пирами и Поиск лок-х пиров).
Если висит надпись, пиры по нулям - не бойтесь, возможность скачать повторно торрент раздачу - есть. Попробуйте, в случае отказа - прокоментируйте или нажмите на "Позвать скачавших".

Пока смерть не разлучит нас / Death Do Us Part (Николас Хемфрис / Nicholas Humphries) [2014, Канада, ужасы, триллер, WEB-DLRip] VO (datynet)

Скачать
Магнет
ПомощьКак скачать раздачу
Поделиться
Теги / Меткиужасы, триллер
Постер
ОписаниеСтрана: Канада
Жанр: ужасы, триллер
Год выпуска: 2014
Продолжительность: 01:29:04

Перевод: Одноголосый закадровый datynet
Cубтитры: нет
Оригинальная аудиодорожка: нет

Режиссер: Николас Хемфрис / Nicholas Humphries

В ролях: Джулия Андерсон, Питер Бенсон, Эмили Уллерап, Кристин Шателейн, Кайл Кэсси, Бенджамин Эйрс, Дэйв Коллетт, Аарон Дуглас, Вив Ликок

Описание: Богатая светская львица Кеннеди Джэмисон всю свою жизнь мечтала об идеальной свадьбе. И вот наконец-то она помолвлена с очаровательным Райаном Харрисом, который через неделю станет её мужем, для полного счастья не хватает только последней холостяцкой вечеринки. Шафер Райана, Чет, арендует отдаленный домик в лесу, чтобы устроить им настоящий праздник, который они не забудут никогда. Но постепенно события принимают ужасающий оборот, члены компании начинают жестоко погибать один за другим. Что-то произошло, и празднование быстро превращается в кровавый кошмар. Дружба разорвана, и шквал обвинений друг друга в этом злодеянии дополняет психологический ужас, поворачивая его в сторону детективного романа.

Доп. информация:
http://imdb.snick.ru/ratefor/02/tt2181889.png http://rating.kinopoisk.ru/663819.gif http://i27.fastpic.ru/big/2011/0918/39/5294519dbf50a7c90dc253c3ae575039.png

Качество видео: WEB-DLRip
Формат видео: AVI

Видео: Xvid 720x400 (16:9) 23.976fps 998 Kbps
Аудио: MP3 44100Hz stereo 160kbps

MediaInfo
General
Complete name : C:\Torrent\Death.Do.Us.Part.WEBDLRip.avi
Format : AVI
Format/Info : Audio Video Interleave
File size : 746 MiB
Duration : 1h 29mn
Overall bit rate : 1 170 Kbps
Movie name : Goliaf.tv
Director : Drimo
Genre : Horror
Writing application : Lavf55.35.101
Original source form/Name : Movie
Comment : Rus (datynet)

Video
ID : 0
Format : MPEG-4 Visual
Format profile : Simple@L5
Format settings, BVOP : No
Format settings, QPel : No
Format settings, GMC : No warppoints
Format settings, Matrix : Default (H.263)
Codec ID : XVID
Codec ID/Hint : XviD
Duration : 1h 29mn
Bit rate : 998 Kbps
Width : 720 pixels
Height : 400 pixels
Display aspect ratio : 16:9
Frame rate : 23.976 fps
Color space : YUV
Chroma subsampling : 4:2:0
Bit depth : 8 bits
Scan type : Progressive
Compression mode : Lossy
Bits/(Pixel*Frame) : 0.145
Stream size : 636 MiB (85%)
Writing library : Lavc55.55.104

Audio
ID : 1
Format : MPEG Audio
Format version : Version 1
Format profile : Layer 3
Codec ID : 55
Codec ID/Hint : MP3
Duration : 1h 29mn
Bit rate mode : Constant
Bit rate : 160 Kbps
Channel count : 2 channels
Sampling rate : 44.1 KHz
Compression mode : Lossy
Stream size : 102 MiB (14%)
Alignment : Aligned on interleaves
Interleave, duration : 26 ms (0.63 video frame)
Interleave, preload duration : 26 ms
Writing library : LAME3.99.5


Скриншот c названием фильма
http://i56.fastpic.ru/thumb/2014/0426/59/56379fa4f63cba2f22cd829de8de5c59.jpeg


Скриншоты
[img]http://i56.fastpic.ru/thumb/2014/0426/99/b67d0e8d8bb71441fd7dccc3a7f29a99.jpeg[/img][img]http://i56.fastpic.ru/thumb/2014/0426/36/790721cae04d9dbfd3e768cc57691336.jpeg" alt="http://i56.fastpic.ru/thumb/2014/0426/a4/ae6826c88e4de425864c03cb0b54c8a4.jpeg[/img][img]http://i56.fastpic.ru/thumb/2014/0426/99/b67d0e8d8bb71441fd7dccc3a7f29a99.jpeg[/img][img]http://i56.fastpic.ru/thumb/2014/0426/36/790721cae04d9dbfd3e768cc57691336.jpeg" />
Похожие файлы
Загрузка / Обновление
КатегорияФильмы AVI RSS лента
Просмотров126 раз (a)
Взят0 раз (a)
Файлы1
Размер745.55 MB (781,762,300 байт)
Добавлен
РаздалViKa  (Искать торренты)
Участники
Участники - Загрузка / Обновление
Просматривают Просматривают Загрузка...

-†- ¿? -†-
« Предыдущая - † Страница † - Следующая »

:: Список Комментариев
Нет комментариев.

 Нет комментариев
Вам запрещенно редактировать, создать или удалять комментарии.
shpv© 2007-2014
Страничка сформирована за 2.185 секунд.
Яндекс.Метрика Rambler's Top100