скачать торрент трекер Friends
 
 Главная  •  Торренты  •  Новые релизы  •  Форум  •   •  Персоны кино  •  Правила  •  ЧаВо

Язык интерфейса
Язык интерфейса:


Привет, Гость
[15] из [15]
Введите Логин:
Введите Пароль:
Регистрация
Восстановить Пароль

Линки
АнекдотыБанкоматВсе теги / меткиДополнительные услугиТехподдержка

Главное Меню
 Главная Торренты Релизы за сегодня Персоны кино Запросы / Предложения (3) Правила ЧаВо Проверка BB кодов Топ 10 Архив новостей Прошлые опросы Форматы файлов Группы Последние комментарии Техподдержка

:: Детали раздачи
Торрент раздача является мультитрекерной — учтите, количество раздающих не будет совпадать с количеством участников на сайте (скачивание на клиентской стороне зависит от настроек uTorrent клиент программы, настройки -> Включить DHT, Обмен пирами и Поиск лок-х пиров).
Если висит надпись, пиры по нулям - не бойтесь, возможность скачать повторно торрент раздачу - есть. Попробуйте, в случае отказа - прокоментируйте или нажмите на "Позвать скачавших".

Риддик / Riddick (Дэвид Туи / David Twohy) [2013, США, Великобритания, фантастика, боевик, триллер, BDRip] Dub

Скачать
Магнет
ПомощьКак скачать раздачу
Поделиться
Теги / Меткифантастика, боевик, триллер
Постер
ОписаниеСтрана: США, Великобритания / One Race Productions, White Hare, Radar Pictures Inc.
Жанр: фантастика, боевик, триллер
Год выпуска: 2013
Продолжительность: 01:58:45
Перевод: Профессиональный (дублированный) BD
Cубтитры: нет
Оригинальная аудиодорожка: нет



Режиссер:
Дэвид Туи / David Twohy



В ролях:
Вин Дизель, Хорди Молья, Мэтью Нэйбл, Кэти Сакхофф, Дэйв Батиста, Букем Вудбайн, Рауль Трухильо, Конрад Пла, Дэнни Бланко, Карл Урбан



Описание:
Преданный своими и брошенный умирать на пустынной планете, Риддик сражается с хищниками за жизнь и становится сильнее и опаснее себя прежнего. Открывшие на него охоту галактические наемники оказываются пешками в грандиозном плане отмщения. С врагами, возникающими на его пути тогда, когда это нужно самому Риддику, он начинает поход во имя мести, чтобы в конечном счете вернуться на родную Фурию и спасти ее от уничтожения.



Сэмпл | КиноПоиск | IMDb



Качество видео: BDRip исх. [Riddick (2013) Blu-ray Disc [USA Transfer] -BLUEBIRD]
Формат видео: AVI
Видео: 688x288 (2.40:1), 23.976 fps, XviD build 65 ~749 kbps avg, 0.15 bit/pixel
Аудио: 48.0 kHz, MPEG Layer 3, 2 ch, ~128.00 kbps avg | (Dub) BD

MediaInfo
Общее
Полное имя : A:\Фильмы\Riddick.2013.BDRip.XviD.753Mb.mp3.avi
Формат : AVI
Формат/Информация : Audio Video Interleave
Размер файла : 753 Мбайт
Продолжительность : 1 ч. 58 м.
Общий поток : 886 Кбит/сек
Программа кодирования : VirtualDubMod 1.5.10.2 (build 2540/release)
Библиотека кодирования : VirtualDubMod build 2540/release

Видео
Идентификатор : 0
Формат : MPEG-4 Visual
Профиль формата : Advanced Simple@L5
Параметр BVOP формата : 1
Параметр QPel формата : Нет
Параметр GMC формата : Без точки перехода
Параметр матрицы формата : Выборочная
Идентификатор кодека : XVID
Идентификатор кодека/Подсказка : XviD
Продолжительность : 1 ч. 58 м.
Битрейт : 749 Кбит/сек
Ширина : 688 пикселей
Высота : 288 пикселей
Соотношение сторон : 2,40:1
Частота кадров : 23,976 кадра/сек
Цветовое пространство : YUV
Субдискретизация насыщенности : 4:2:0
Битовая глубина : 8 бит
Тип развёртки : Прогрессивная
Метод сжатия : С потерями
Бит/(Пиксели*Кадры) : 0.158
Размер потока : 636 Мбайт (85%)
Библиотека кодирования : XviD 65

Аудио
Идентификатор : 1
Формат : MPEG Audio
Версия формата : Version 1
Профиль формата : Layer 3
Идентификатор кодека : 55
Идентификатор кодека/Подсказка : MP3
Продолжительность : 1 ч. 58 м.
Вид битрейта : Постоянный
Битрейт : 128 Кбит/сек
Каналы : 2 канала
Частота : 48,0 КГц
Метод сжатия : С потерями
Размер потока : 109 Мбайт (14%)
Выравнивание : Соединение по промежуткам
Продолжительность промежутка : 42 мс. (1,00 видеокадр)
Время предзагрузки промежутка : 504 мс.
Библиотека кодирования : LAME3.99r
Настройки программы : -m s -V 4 -q 2 -lowpass 17 -b 128


Скриншот c названием фильма
http://i5.imageban.ru/out/2014/04/26/972154c46bd9fa2a36c8258705445a7c.png



Скриншоты
http://i5.imageban.ru/out/2014/04/26/e14b7c89ced2b30b02b41445fb791f3e.png
http://i6.imageban.ru/out/2014/04/26/7765d0a040aa07321bf9a42129090f9b.png
http://i5.imageban.ru/out/2014/04/26/ce5951d3290b0161a3f278be64941209.png
http://i5.imageban.ru/out/2014/04/26/8fb8a02323afdd27d684290c81c9f8b1.png
http://i5.imageban.ru/out/2014/04/26/67a2c12f655bec174f23980825f1d27e.png
http://i6.imageban.ru/out/2014/04/26/0952a7945412c5f55eb3334215cd9633.png
Скриншоты
Похожие файлы
Загрузка / Обновление
КатегорияФильмы AVI RSS лента
Просмотров113 раз (a)
Взят0 раз (a)
Файлы1
Размер752.69 MB (789,254,144 байт)
Добавлен
РаздалViKa  (Искать торренты)
Участники
Участники - Загрузка / Обновление
Просматривают Просматривают Загрузка...

-†- ¿? -†-
« Предыдущая - † Страница † - Следующая »

:: Список Комментариев
Нет комментариев.

 Нет комментариев
Вам запрещенно редактировать, создать или удалять комментарии.
shpv© 2007-2014
Страничка сформирована за 0.073 секунд.
Яндекс.Метрика Rambler's Top100