Friends
 
   •   •   •   •   •   •   • 

:


,
[15] [15]
:
:

/

        / (3)    BB   10          

::
, ( uTorrent , -> DHT, - ).
, - , - . , - " ".

Star / Last Vegas ( Ҹ / Jon Turteltaub) [2013, , , , HDRip] Dub


/ ,
:
: ,
: 2013
: 01:44:59

: () |
C:
:

: Ҹ / Jon Turteltaub

: , , , , , , , , ,

: , , . - , -, . ,

http://rating.kinopoisk.ru/468571.gif http://kinoafisha.ru/ratingi1204975.png

: http://sendfile.su/972356

: HDRip
: AVI

: XviD 73, 720x304 (2.35:1), 23.976 fps, 1518 Kbps
: AC-3, 48.0 kHz, 448 Kbps, 5.1 ch, CBR

: Scarabey

MediaInfo


General
Complete name : Last.Vegas.2013.D.HDRip.avi
Format : AVI
Format/Info : Audio Video Interleave
File size : 1.45 GiB
Duration : 1h 44mn
Overall bit rate : 1 975 Kbps
Writing application : VirtualDubMod 1.5.10.3 | www.virtualdub-fr.org || (build 2550/release)
Writing library : VirtualDub build 32842/release

Video
ID : 0
Format : MPEG-4 Visual
Format profile : Advanced Simple@L5
Format settings, BVOP : 1
Format settings, QPel : No
Format settings, GMC : No warppoints
Format settings, Matrix : Custom
Codec ID : XVID
Codec ID/Hint : XviD
Duration : 1h 44mn
Bit rate : 1 518 Kbps
Width : 720 pixels
Height : 304 pixels
Display aspect ratio : 2.35:1
Frame rate : 23.976 fps
Color space : YUV
Chroma subsampling : 4:2:0
Bit depth : 8 bits
Scan type : Progressive
Compression mode : Lossy
Bits/(Pixel*Frame) : 0.289
Stream size : 1.11 GiB (77%)
Writing library : XviD 73

Audio
ID : 1
Format : AC-3
Format/Info : Audio Coding 3
Codec ID : 2000
Duration : 1h 44mn
Bit rate mode : Constant
Bit rate : 448 Kbps
Channel(s) : 6 channels
Sampling rate : 48.0 KHz
Compression mode : Lossy
Stream size : 336 MiB (23%)
Alignment : Split accross interleaves
Interleave, duration : 42 ms (1.00 video frame)
Interleave, preload duration : 500 ms



c
http://i056.radikal.ru/1404/05/f93c2bcff55dt.jpg



http://i023.radikal.ru/1404/ee/e3c7f6bf4448t.jpg http://i024.radikal.ru/1404/cc/236a00be8a19t.jpg http://s020.radikal.ru/i711/1404/f6/8aff6a60181et.jpg http://s020.radikal.ru/i706/1404/f8/22b5b7c37386t.jpg http://s018.radikal.ru/i505/1404/c4/de5f45378388t.jpg http://s005.radikal.ru/i209/1404/4c/b9ed27ebbd28t.jpg http://s020.radikal.ru/i722/1404/5e/04a5430cd5a4t.jpg http://s018.radikal.ru/i515/1404/64/914870e0cc83t.jpg
/
AVI RSS
150 (a)
1 (a)
1
1.45 GB (1,554,984,886 )
ViKa  ( )
- /
...

-- ¿? --
- -

::
.

 
, .
shpv© 2007-2014
0.123 .
. Rambler's Top100