скачать торрент трекер Friends
 
 Главная  •  Торренты  •  Новые релизы  •  Форум  •   •  Персоны кино  •  Правила  •  ЧаВо

Язык интерфейса
Язык интерфейса:


Привет, Гость
[15] из [15]
Введите Логин:
Введите Пароль:
Регистрация
Восстановить Пароль

Линки
АнекдотыБанкоматВсе теги / меткиДополнительные услугиТехподдержка

Главное Меню
 Главная Торренты Релизы за сегодня Персоны кино Запросы / Предложения (3) Правила ЧаВо Проверка BB кодов Топ 10 Архив новостей Прошлые опросы Форматы файлов Группы Последние комментарии Техподдержка

:: Детали раздачи
Торрент раздача является мультитрекерной — учтите, количество раздающих не будет совпадать с количеством участников на сайте (скачивание на клиентской стороне зависит от настроек uTorrent клиент программы, настройки -> Включить DHT, Обмен пирами и Поиск лок-х пиров).
Если висит надпись, пиры по нулям - не бойтесь, возможность скачать повторно торрент раздачу - есть. Попробуйте, в случае отказа - прокоментируйте или нажмите на "Позвать скачавших".

Дом игр / Игорный дом / House of Games (Дэвид Мамет / David Mamet) [1987 г., США, триллер, криминал, детектив, DVDRip] DVO(НТВ+) + Original(Eng) + sub(Eng)

Скачать
Магнет
ПомощьКак скачать раздачу
Поделиться
Теги / Меткитриллер, криминал, детектив
Постер
ОписаниеДом игр / Игорный дом
House of Games

Страна: США
Жанр: триллер, криминал, детектив
Год выпуска: 1987
Продолжительность: 01:41:57

Перевод : Профессиональный (двухголосый закдровый) - НТВ+
(Перевод Юрия Сербина. Текст читали Марина Тарасова и Александр Гаврилин )

Cубтитры: английские (Criterion) - отдельным файлом
Оригинальная дорожка: английский (Criterion) - отдельным файлом

Режиссер: Майкл Дэвис / Michael Davis
В ролях: Линдси Краус, Джо Мантенья, Майк Нассбаум, Джей Ти Уолш, Энди Поток, Уилло Хосмен, Стивен Голдштейн, Джек Уоллес, Рики Джэй, Дж. Рой Левин, Аллен Сул, Уильям Х. Мэйси, Джон Притчетт, Мешах Тэйлор, Джонни Шугарбир Уиллис, Патриция Вулфф, Роберта Магуайр, Лилия Скала, Джули Майклс



Описание: Маргарет Фордт — преуспевающая женщина-психиатр. Она написала книгу, которая хорошо продается, у нее есть деньги, интересная работа, но все чаще стало появляться чувство неудовлетворенности. Случай сводит ее с мошенником Майклом, обаятельным и интересным человеком, склонным к философствованию, и вскоре скука ее рассеивается, так как по ее просьбе он начинает посвещать ее в секреты профессии. На этом материале она намеревается написать книгу и постепенно влюбляется в него. Но Маргарет даже не представляет, что в скором времени станет жертвой тонко спланированной, широкомасштабной аферы... Сценарий Дэвида Мэмета по сюжету Джонатана Кэца и Дэвида Мэмета предусматривает и неожиданную мощную концовку.



http://kondopoga.su/level2/1/film/3007.png http://static.rutracker.org/smiles/icon_arrow.gif
СЕМПЛ http://static.rutracker.org/smiles/icon_arrow2.gif
http://kondopoga.su/level/1/film/3007.png

Качество видео: DVDRip, спасибо etonevam за исходник DVD9 (custom), группе Uralmix за дорожку НТВ+
Формат видео: AVI
Видео: XviD, 720x384 (1.88:1), 23.976 fps, 1840 kbps avg, 0.28 bit/pixel
Аудио #1: RusDVO - MPEG Layer 3, 48 kHz, 128 kbps (CBR), 2 ch - взята из рипа
Аудио #2: OrigENG - AC3 Dolby Digital, 48 kHz, 192 kbps, 1 ch - отдельным файлом
Субтитры: Английские, softsub (SRT), (кодировка - ANSI) - отдельным файломhttp://static.rutracker.org/ranks/rg_torrents_logo.gif[/img][img]http://i3.imageban.ru/out/2013/08/05/000622eba0dc7ecd357aa04fe1e703b8.gif

Скриншоты
http://s43.radikal.ru/i101/1404/7f/9db015378d72.png
http://s61.radikal.ru/i171/1404/8e/2bbfe7e9696d.png
http://i062.radikal.ru/1404/32/4ac7a1ad5f68.png
http://s006.radikal.ru/i214/1404/98/394e9be20b41.png
http://s019.radikal.ru/i614/1404/20/d4598e8c12e1.png
http://s43.radikal.ru/i101/1404/a4/677796e00523.png
http://s001.radikal.ru/i195/1404/aa/0c532c3f2e43.png
http://s006.radikal.ru/i214/1404/06/f60bebc3233d.png
http://s020.radikal.ru/i708/1404/cd/0d5104405ad4.png
http://s58.radikal.ru/i162/1404/89/48fec8421e3c.png



MediaInfo


Общее
Полное имя                               : Dom_Igr.1987.XviD.DVDRip\Dom_Igr.1987.XviD.DVDRip.avi
Формат                                   : AVI
Формат/Информация                        : Audio Video Interleave
Размер файла                             : 1,41 Гбайт
Продолжительность                        : 1 ч. 41 м.
Общий поток                              : 1978 Кбит/сек
Название фильма                          : Dom_Igr.1987.XviD.DVDRip
Режиссёр                                 : rip by MetionInka
Жанр                                     : Crime / Mystery / Thriller
Программа кодирования                    : VirtualDubMod 1.5.10.3 | www.virtualdub-fr.org || (build 2550/release)
Формат оригинала/Имя                     : House of Games / 1987
Правообладатель                          : runtracker.org
Примечание                               : RusDVO [HTB+]

Видео
Идентификатор                            : 0
Формат                                   : MPEG-4 Visual
Профиль формата                          : Advanced Simple@L5
Параметр BVOP формата                    : 2
Параметр QPel формата                    : Нет
Параметр GMC формата                     : Без точки перехода
Параметр матрицы формата                 : Выборочная
Идентификатор кодека                     : XVID
Идентификатор кодека/Подсказка           : XviD
Продолжительность                        : 1 ч. 41 м.
Битрейт                                  : 1841 Кбит/сек
Ширина                                   : 720 пикселей
Высота                                   : 384 пикселя
Соотношение сторон                       : 1,85:1
Частота кадров                           : 23,976 кадра/сек
Цветовое пространство                    : YUV
Субдискретизация насыщенности            : 4:2:0
Битовая глубина                          : 8 бит
Тип развёртки                            : Прогрессивная
Метод сжатия                             : С потерями
Бит/(Пиксели*Кадры)                      : 0.278
Размер потока                            : 1,31 Гбайт (93%)
Библиотека кодирования                   : XviD 73

Аудио
Идентификатор                            : 1
Формат                                   : MPEG Audio
Версия формата                           : Version 1
Профиль формата                          : Layer 3
Идентификатор кодека                     : 55
Идентификатор кодека/Подсказка           : MP3
Продолжительность                        : 1 ч. 41 м.
Вид битрейта                             : Постоянный
Битрейт                                  : 128 Кбит/сек
Каналы                                   : 2 канала
Частота                                  : 48,0 КГц
Метод сжатия                             : С потерями
Размер потока                            : 93,3 Мбайт (6%)
Выравнивание                             : Соединение по промежуткам
Продолжительность промежутка             : 42  мс. (1,00 видеокадр)
Время предзагрузки промежутка            : 504  мс.



Альтернативный рип
http://rutracker.org/forum/viewtopic.php?t=1642111
с другими переводами
Скриншоты
Похожие файлы
Загрузка / Обновление
КатегорияФильмы DVD RSS лента
Просмотров121 раз (a)
Взят0 раз (a)
Файлы3
Размер1.55 GB (1,659,518,390 байт)
Добавлен
РаздалViKa  (Искать торренты)
Участники
Участники - Загрузка / Обновление
Просматривают Просматривают Загрузка...

-†- ¿? -†-
« Предыдущая - † Страница † - Следующая »

:: Список Комментариев
Нет комментариев.

 Нет комментариев
Вам запрещенно редактировать, создать или удалять комментарии.
shpv© 2007-2014
Страничка сформирована за 0.033 секунд.
Яндекс.Метрика Rambler's Top100