скачать торрент трекер Friends
 
 Главная  •  Торренты  •  Новые релизы  •  Форум  •   •  Персоны кино  •  Правила  •  ЧаВо

Язык интерфейса
Язык интерфейса:


Привет, Гость
[15] из [15]
Введите Логин:
Введите Пароль:
Регистрация
Восстановить Пароль

Линки
АнекдотыБанкоматВсе теги / меткиДополнительные услугиТехподдержка

Главное Меню
 Главная Торренты Релизы за сегодня Персоны кино Запросы / Предложения (3) Правила ЧаВо Проверка BB кодов Топ 10 Архив новостей Прошлые опросы Форматы файлов Группы Последние комментарии Техподдержка

:: Детали раздачи
Торрент раздача является мультитрекерной — учтите, количество раздающих не будет совпадать с количеством участников на сайте (скачивание на клиентской стороне зависит от настроек uTorrent клиент программы, настройки -> Включить DHT, Обмен пирами и Поиск лок-х пиров).
Если висит надпись, пиры по нулям - не бойтесь, возможность скачать повторно торрент раздачу - есть. Попробуйте, в случае отказа - прокоментируйте или нажмите на "Позвать скачавших".

Деньги / Paisa (Кришна Вамси / Krishna Vamsi) [2014, Индия, комедия, DVDRip] + Sub Rus

Скачать
Магнет
ПомощьКак скачать раздачу
Поделиться
Теги / Меткикомедия
Постер
ОписаниеСтрана: Индия
Жанр: комедия
Год выпуска: 2014
Продолжительность: 02:17:19

Перевод: Субтитры
Cубтитры: русские
Оригинальная аудиодорожка: телугу
Перевод субтитров: Wita
Перевод песен: net
Риппер: randy23

Режиссер: Кришна Вамси / Krishna Vamsi

В ролях: Нани, Катрин Треса, Сиддика Шарма, Бхарат Редди, Чаран Радж, Дувасси Мохан

Описание: Знакомьтесь: Пракаш. То ли неудачник, то ли лентяй, главное – очень обаятельный. Одно точно известно о нем – он страстно хочет денег. Всего какой-то несчастный крор – и жизнь его будет в шоколаде. Парнишка он честный, поэтому ограбление банка и прочий криминал не предлагать. Как вариант, можно соблазнить дочурку какого-нибудь богатенького папы. Тут как раз поблизости одна такая бегает – Свити зовут, девушка без комплексов. Но есть еще и Нур, девушка-мусульманка, которая влюблена в Пракаша, но вынуждена согласиться на брак со старым шейхом из-за долгов семьи. Угадайте с одного раза, что сделает Пракаш? Правильно, к черту шейха, любимую за руку и бежать со свадьбы. Там еще так вовремя машина черная стояла, на машине ведь быстрее убегать...

Сэмпл: http://multi-up.com/969743

Качество видео: DVDRip
Формат видео: AVI

Дополнительно. Для тех, кто будет брать релиз на другие ресурсы, убедительная просьба: сохраняйте оформление до буквы.
И настоятельно прошу самых наглых не вырезать имя переводчиков из субтитров.
Реализация рипа субтитрами через интернет-магазины не предусмотрена


Видео: XviD, 720х312, 2.35:1, 23.976 fps, 1 680 Kbps
Аудио: AC-3, 48.0 kHz, 448 Kbps, 6 channels, Original
Формат субтитров: hardsub (неотключаемые)

MediaInfo
Complete name Dengi.2014.DVDRip.XviD.tw.BwTorrents
Format : AVI
Format/Info : Audio Video Interleave
Format profile : OpenDML
File size : 2.05 GiB
Duration : 2h 17mn
Overall bit rate : 2 140 Kbps
Writing application : VirtualDubMod 1.5.10.2 (build 2542/release)
Writing library : VirtualDubMod build 2542/release

Video
ID : 0
Format : MPEG-4 Visual
Format profile : Advanced Simple@L5
Format settings, BVOP : Yes
Format settings, QPel : No
Format settings, GMC : No warppoints
Format settings, Matrix : Default (H.263)
Codec ID : XVID
Codec ID/Hint : XviD
Duration : 2h 17mn
Bit rate : 1 680 Kbps
Width : 720 pixels
Height : 312 pixels
Display aspect ratio : 2.35:1
Frame rate : 23.976 fps
Color space : YUV
Chroma subsampling : 4:2:0
Bit depth : 8 bits
Scan type : Progressive
Bits/(Pixel*Frame) : 0.312
Stream size : 1.61 GiB (78%)
Writing library : XviD 1.2.1 (UTC 2008-12-04)

Audio
ID : 1
Format : AC-3
Format/Info : Audio Coding 3
Mode extension : CM (complete main)
Codec ID : 2000
Duration : 2h 17mn
Bit rate mode : Constant
Bit rate : 448 Kbps
Channel(s) : 6 channels
Channel positions : Front: L C R, Side: L R, LFE
Sampling rate : 48.0 KHz
Stream size : 440 MiB (21%)
Alignment : Split accross interleaves
Interleave, duration : 42 ms (1.00 video frame)
Interleave, preload duration : 500 ms


Скриншот c названием фильма
http://i56.fastpic.ru/thumb/2014/0426/7a/db17d0ec2062c329c4865a4f5b52577a.jpeg


Скриншоты
http://i55.fastpic.ru/thumb/2014/0426/b9/69d435be18a0858b08097773ccc4f5b9.jpeg http://i55.fastpic.ru/thumb/2014/0426/80/e39f68c7ea38cb05f01490e1a2f73080.jpeg

http://i55.fastpic.ru/thumb/2014/0426/88/a96a854b0692bac5ed643c23c1191188.jpeg http://i55.fastpic.ru/thumb/2014/0426/6b/acc0ae884ffc75c8b42ece1f2a9f9b6b.jpeg

http://i55.fastpic.ru/thumb/2014/0426/a0/bb818b403f3d287e2877ecaa152818a0.jpeg http://i55.fastpic.ru/thumb/2014/0426/6e/c06ce6456838fefc9fce0bdad6571d6e.jpeg

http://i55.fastpic.ru/thumb/2014/0426/5e/c3f0dfdde2818c9b60791b0a45f9675e.jpeg http://i55.fastpic.ru/thumb/2014/0426/44/c74f2c6a22bd81a8f0722f1e89815c44.jpeg

http://i55.fastpic.ru/thumb/2014/0426/46/b75892055b9e576b9e3950b0028c1a46.jpeg http://i55.fastpic.ru/thumb/2014/0426/59/fc49a79aaa5a263db39b5c38017fed59.jpeg

http://i55.fastpic.ru/thumb/2014/0426/6e/3aa66c9e6eeef59094c72fc7d556d66e.jpeg http://i55.fastpic.ru/thumb/2014/0426/2f/ca109859c6d8233e4fe33623c2c5002f.jpeg







Сообщения из этой темы [4 шт.] были выделены в отдельный топик T. Bag [id: 24408653]

filolya
Похожие файлы
Загрузка / Обновление
КатегорияФильмы DVD RSS лента
Просмотров154 раз (a)
Взят0 раз (a)
Файлы1
Размер2.05 GB (2,203,799,552 байт)
Добавлен
РаздалViKa  (Искать торренты)
Участники
Участники - Загрузка / Обновление
Просматривают Просматривают Загрузка...

-†- ¿? -†-
« Предыдущая - † Страница † - Следующая »

:: Список Комментариев
Нет комментариев.

 Нет комментариев
Вам запрещенно редактировать, создать или удалять комментарии.
shpv© 2007-2014
Страничка сформирована за 0.154 секунд.
Яндекс.Метрика Rambler's Top100