скачать торрент трекер Friends
 
 Главная  •  Торренты  •  Новые релизы  •  Форум  •   •  Персоны кино  •  Правила  •  ЧаВо

Язык интерфейса
Язык интерфейса:


Привет, Гость
[15] из [15]
Введите Логин:
Введите Пароль:
Регистрация
Восстановить Пароль

Линки
АнекдотыБанкоматВсе теги / меткиДополнительные услугиТехподдержка

Главное Меню
 Главная Торренты Релизы за сегодня Персоны кино Запросы / Предложения (3) Правила ЧаВо Проверка BB кодов Топ 10 Архив новостей Прошлые опросы Форматы файлов Группы Последние комментарии Техподдержка

:: Детали раздачи
Торрент раздача является мультитрекерной — учтите, количество раздающих не будет совпадать с количеством участников на сайте (скачивание на клиентской стороне зависит от настроек uTorrent клиент программы, настройки -> Включить DHT, Обмен пирами и Поиск лок-х пиров).
Если висит надпись, пиры по нулям - не бойтесь, возможность скачать повторно торрент раздачу - есть. Попробуйте, в случае отказа - прокоментируйте или нажмите на "Позвать скачавших".

Мой первый мужчина / My First Mister (Кристин Лати / Christine Lahti) [2001, Германия, США, мелодрама, DVDRip] DVO + Original (eng)

Скачать
Магнет
ПомощьКак скачать раздачу
Поделиться
Теги / Меткимелодрама
Постер
ОписаниеСтрана: Германия, США
Жанр: мелодрама
Год выпуска: 2001
Продолжительность: 01:49:12

Аудио 1: Перевод - профессиональный (двухголосый закадровый)
Аудио 2: Оригинальная аудиодорожка (английский)
Cубтитры: английские

Режиссер: Кристин Лати / Christine Lahti
В ролях: Рутаня Олда, Наташа Брайсуэлл, Альберт Брукс, Генри Браун, Гари Баллок, Кевин Куни, Ник Коста, Уильям Форвард, Джон Гудман, Десмонд Хэррингтон

Описание: Дженнифер только что закончила школу и преуспевает на своей новой работе в престижном магазине модной одежды. Она становится подругой своего босса Рэндалла, который гораздо старше ее, но очень скоро для нее дружеские отношения превращаются в страстную любовь.

Но, как это часто бывает в жизни, всему мешает сама жизнь...

Доп. информация: [img]http://www.kinopoisk.ru/rating/5314.gif" alt="http://imdb.snick.ru/ratefor/tt0206963.png[/img][img]http://www.kinopoisk.ru/rating/5314.gif" />

http://i40.fastpic.ru/big/2012/0915/bc/758620fd9b018c10eee4e618270331bc.jpg

Релиз: http://i3.imageban.ru/out/2013/08/05/000622eba0dc7ecd357aa04fe1e703b8.gif
Качество видео: DVDRip с DVD5 из собственной коллекции (DVD: NTSC 720x480 rus, eng)
Формат видео: AVI

Видео: MPEG-4 XviD 65, 704х288, соотношение сторон 2,40:1, 23,976 кадра/сек, 1962 Кбит/сек, 0.404 Бит/(Пиксели*Кадры)
Аудио 1: AC-3, 48,0 КГц, 384 Кбит/сек постоянный, 6 каналов (Front: L C R, Side: L R, LFE) - DVO, профессиональный русский (в контейнере)
Аудио 2: AC-3, 48,0 КГц, 448 Кбит/сек, 6 каналов (Front: L C R, Side: L R, LFE) - оригинальный, английский (в контейнере)
Субтитры: английские (srt)(отдельно)

MediaInfo
Общее
Полное имя : D:\Ripp\38 Мой первый мужчина\r21\Moi_per_muzz_21_mx.avi
Формат : AVI
Формат/Информация : Audio Video Interleave
Профиль формата : OpenDML
Размер файла : 2,15 Гбайт
Продолжительность : 1 ч. 49 м.
Общий поток : 2812 Кбит/сек
Программа кодирования : VirtualDubMod 1.5.10.2 (build 2540/release)
Библиотека кодирования : VirtualDubMod build 2540/release

Видео
Идентификатор : 0
Формат : MPEG-4 Visual
Профиль формата : Advanced Simple@L5
Параметр BVOP формата : 1
Параметр QPel формата : Нет
Параметр GMC формата : Без точки перехода
Параметр матрицы формата : Default (MPEG)
Идентификатор кодека : XVID
Идентификатор кодека/Подсказка : XviD
Продолжительность : 1 ч. 49 м.
Битрейт : 1962 Кбит/сек
Ширина : 704 пикселя
Высота : 288 пикселей
Соотношение сторон : 2,40:1
Частота кадров : 23,976 кадра/сек
Цветовое пространство : YUV
Субдискретизация насыщенности : 4:2:0
Битовая глубина : 8 бит
Тип развёртки : Прогрессивная
Метод сжатия : С потерями
Бит/(Пиксели*Кадры) : 0.404
Размер потока : 1,50 Гбайт (70%)
Библиотека кодирования : XviD 65

Аудио #1
Идентификатор : 1
Формат : AC-3
Формат/Информация : Audio Coding 3
Расширение режима : CM (complete main)
Идентификатор кодека : 2000
Продолжительность : 1 ч. 49 м.
Вид битрейта : Постоянный
Битрейт : 384 Кбит/сек
Каналы : 6 каналов
Расположение каналов : Front: L C R, Side: L R, LFE
Частота : 48,0 КГц
Битовая глубина : 16 бит
Метод сжатия : С потерями
Размер потока : 300 Мбайт (14%)
Выравнивание : Разделение по промежуткам
Продолжительность промежутка : 42 мс. (1,00 видеокадр)
Время предзагрузки промежутка : 500 мс.
Заголовок : Russian, DVO, AC-3, 6ch, 384kbps

Аудио #2
Идентификатор : 2
Формат : AC-3
Формат/Информация : Audio Coding 3
Расширение режима : CM (complete main)
Идентификатор кодека : 2000
Продолжительность : 1 ч. 49 м.
Вид битрейта : Постоянный
Битрейт : 448 Кбит/сек
Каналы : 6 каналов
Расположение каналов : Front: L C R, Side: L R, LFE
Частота : 48,0 КГц
Битовая глубина : 16 бит
Метод сжатия : С потерями
Размер потока : 350 Мбайт (16%)
Выравнивание : Разделение по промежуткам
Продолжительность промежутка : 42 мс. (1,00 видеокадр)
Время предзагрузки промежутка : 500 мс.
Заголовок : English, AC-3, 6ch, 448kbps


Скриншоты
[img]http://i56.fastpic.ru/thumb/2014/0426/3c/4ec4d72ffe6b4d080df51e139e41763c.jpeg[/img][img]http://i56.fastpic.ru/thumb/2014/0426/e8/8c47b0fea3b9558d07aaa3c2ddd081e8.jpeg[/img][img]http://i56.fastpic.ru/thumb/2014/0426/59/2082b5e505a179eb3831a0d304e02859.jpeg[/img][img]http://i56.fastpic.ru/thumb/2014/0426/b0/c2f6acc7da816af9557dfe4a09c72db0.jpeg[/img][img]http://i55.fastpic.ru/thumb/2014/0426/2e/9ebdccec788a8702b2bf98cd92f2842e.jpeg[/img][img]http://i55.fastpic.ru/thumb/2014/0426/b6/87ad13acacd40dc066747abe6c971db6.jpeg" alt="http://i56.fastpic.ru/thumb/2014/0426/19/5e42c048427ff26bae342edc81313d19.jpeg[/img][img]http://i56.fastpic.ru/thumb/2014/0426/3c/4ec4d72ffe6b4d080df51e139e41763c.jpeg[/img][img]http://i56.fastpic.ru/thumb/2014/0426/e8/8c47b0fea3b9558d07aaa3c2ddd081e8.jpeg[/img][img]http://i56.fastpic.ru/thumb/2014/0426/59/2082b5e505a179eb3831a0d304e02859.jpeg[/img][img]http://i56.fastpic.ru/thumb/2014/0426/b0/c2f6acc7da816af9557dfe4a09c72db0.jpeg[/img][img]http://i55.fastpic.ru/thumb/2014/0426/2e/9ebdccec788a8702b2bf98cd92f2842e.jpeg[/img][img]http://i55.fastpic.ru/thumb/2014/0426/b6/87ad13acacd40dc066747abe6c971db6.jpeg" />

Пожалуйста! Не забывайте нажать "Спасибо!" http://static.rutracker.org/smiles/icon_smile.gif
Похожие файлы
Загрузка / Обновление
КатегорияФильмы DVD RSS лента
Просмотров147 раз (a)
Взят0 раз (a)
Файлы2
Размер2.15 GB (2,303,514,620 байт)
Добавлен
РаздалViKa  (Искать торренты)
Участники
Участники - Загрузка / Обновление
Просматривают Просматривают Загрузка...

-†- ¿? -†-
« Предыдущая - † Страница † - Следующая »

:: Список Комментариев
Нет комментариев.

 Нет комментариев
Вам запрещенно редактировать, создать или удалять комментарии.
shpv© 2007-2014
Страничка сформирована за 0.176 секунд.
Яндекс.Метрика Rambler's Top100