скачать торрент трекер Friends
 
 Главная  •  Торренты  •  Новые релизы  •  Форум  •   •  Персоны кино  •  Правила  •  ЧаВо

Язык интерфейса
Язык интерфейса:


Привет, Гость
[15] из [15]
Введите Логин:
Введите Пароль:
Регистрация
Восстановить Пароль

Линки
АнекдотыБанкоматВсе теги / меткиДополнительные услугиТехподдержка

Главное Меню
 Главная Торренты Релизы за сегодня Персоны кино Запросы / Предложения (3) Правила ЧаВо Проверка BB кодов Топ 10 Архив новостей Прошлые опросы Форматы файлов Группы Последние комментарии Техподдержка

:: Детали раздачи
Торрент раздача является мультитрекерной — учтите, количество раздающих не будет совпадать с количеством участников на сайте (скачивание на клиентской стороне зависит от настроек uTorrent клиент программы, настройки -> Включить DHT, Обмен пирами и Поиск лок-х пиров).
Если висит надпись, пиры по нулям - не бойтесь, возможность скачать повторно торрент раздачу - есть. Попробуйте, в случае отказа - прокоментируйте или нажмите на "Позвать скачавших".

Мой первый мужчина / My First Mister (Кристин Лати / Christine Lahti) [2001, Германия, США, мелодрама, DVDRip] DVO

Скачать
Магнет
ПомощьКак скачать раздачу
Поделиться
Теги / Меткимелодрама
Постер
ОписаниеСтрана: Германия, США
Жанр: мелодрама
Год выпуска: 2001
Продолжительность: 01:49:12

Аудио: Перевод - профессиональный (двухголосый закадровый)
Cубтитры: нет

Режиссер: Кристин Лати / Christine Lahti
В ролях: Рутаня Олда, Наташа Брайсуэлл, Альберт Брукс, Генри Браун, Гари Баллок, Кевин Куни, Ник Коста, Уильям Форвард, Джон Гудман, Десмонд Хэррингтон

Описание: Дженнифер только что закончила школу и преуспевает на своей новой работе в престижном магазине модной одежды. Она становится подругой своего босса Рэндалла, который гораздо старше ее, но очень скоро для нее дружеские отношения превращаются в страстную любовь.

Но, как это часто бывает в жизни, всему мешает сама жизнь...

Доп. информация: [img]http://www.kinopoisk.ru/rating/5314.gif" alt="http://imdb.snick.ru/ratefor/tt0206963.png[/img][img]http://www.kinopoisk.ru/rating/5314.gif" />

http://i40.fastpic.ru/big/2012/0915/bc/758620fd9b018c10eee4e618270331bc.jpg

Релиз: http://i3.imageban.ru/out/2013/08/05/000622eba0dc7ecd357aa04fe1e703b8.gif
Качество видео: DVDRip с DVD5 из собственной коллекции (DVD: NTSC 720x480 rus, eng)
Формат видео: AVI

Видео: MPEG-4 XviD 65, 560х224, соотношение сторон 2,5, 23,976 кадра/сек, 750 Кбит/сек, 0.250 Бит/(Пиксели*Кадры)
Аудио: Layer 3 mp3, 48,0 КГц, 192 Кбит/сек постоянный, 2 канала (Стерео) - DVO, профессиональный, русский (в контейнере)

MediaInfo
Общее
Полное имя : D:\Ripp\38 Мой первый мужчина\r07\Moi_per_muzz_07_mx.avi
Формат : AVI
Формат/Информация : Audio Video Interleave
Размер файла : 744 Мбайт
Продолжительность : 1 ч. 49 м.
Общий поток : 952 Кбит/сек
Программа кодирования : VirtualDubMod 1.5.10.2 (build 2540/release)
Библиотека кодирования : VirtualDubMod build 2540/release

Видео
Идентификатор : 0
Формат : MPEG-4 Visual
Профиль формата : Advanced Simple@L5
Параметр BVOP формата : 1
Параметр QPel формата : Нет
Параметр GMC формата : Без точки перехода
Параметр матрицы формата : Default (MPEG)
Идентификатор кодека : XVID
Идентификатор кодека/Подсказка : XviD
Продолжительность : 1 ч. 49 м.
Битрейт : 750 Кбит/сек
Ширина : 560 пикселей
Высота : 224 пикселя
Соотношение сторон : 2,500
Частота кадров : 23,976 кадра/сек
Цветовое пространство : YUV
Субдискретизация насыщенности : 4:2:0
Битовая глубина : 8 бит
Тип развёртки : Прогрессивная
Метод сжатия : С потерями
Бит/(Пиксели*Кадры) : 0.250
Размер потока : 586 Мбайт (79%)
Библиотека кодирования : XviD 65

Аудио
Идентификатор : 1
Формат : MPEG Audio
Версия формата : Version 1
Профиль формата : Layer 3
Режим : Joint stereo
Расширение режима : MS Stereo
Идентификатор кодека : 55
Идентификатор кодека/Подсказка : MP3
Продолжительность : 1 ч. 49 м.
Вид битрейта : Постоянный
Битрейт : 192 Кбит/сек
Каналы : 2 канала
Частота : 48,0 КГц
Метод сжатия : С потерями
Размер потока : 150 Мбайт (20%)
Выравнивание : Соединение по промежуткам
Продолжительность промежутка : 42 мс. (1,00 видеокадр)
Время предзагрузки промежутка : 504 мс.
Заголовок : Russian, DVO, mp3, 2ch, 192kbps


Скриншоты
[img]http://i55.fastpic.ru/thumb/2014/0426/fb/e2e19b184cc6338f2e604eaa188a46fb.jpeg[/img][img]http://i56.fastpic.ru/thumb/2014/0426/b3/6097f260dab3ec370f934ecd646667b3.jpeg[/img][img]http://i55.fastpic.ru/thumb/2014/0426/37/28d831ba585915e81ac865484973d237.jpeg[/img][img]http://i55.fastpic.ru/thumb/2014/0426/45/1c184c7bb0ad73e96cef1b7f4d7cd845.jpeg[/img][img]http://i55.fastpic.ru/thumb/2014/0426/63/de81347db92ecd9d48ff7777f38c0363.jpeg[/img][img]http://i56.fastpic.ru/thumb/2014/0426/c1/539a87a2d755f641fdfcac46ae8c7fc1.jpeg" alt="http://i55.fastpic.ru/thumb/2014/0426/6c/10e879d394615a095ca1e16da7a5796c.jpeg[/img][img]http://i55.fastpic.ru/thumb/2014/0426/fb/e2e19b184cc6338f2e604eaa188a46fb.jpeg[/img][img]http://i56.fastpic.ru/thumb/2014/0426/b3/6097f260dab3ec370f934ecd646667b3.jpeg[/img][img]http://i55.fastpic.ru/thumb/2014/0426/37/28d831ba585915e81ac865484973d237.jpeg[/img][img]http://i55.fastpic.ru/thumb/2014/0426/45/1c184c7bb0ad73e96cef1b7f4d7cd845.jpeg[/img][img]http://i55.fastpic.ru/thumb/2014/0426/63/de81347db92ecd9d48ff7777f38c0363.jpeg[/img][img]http://i56.fastpic.ru/thumb/2014/0426/c1/539a87a2d755f641fdfcac46ae8c7fc1.jpeg" />

Пожалуйста! Не забывайте нажать "Спасибо!" http://static.rutracker.org/smiles/icon_smile.gif
Похожие файлы
Загрузка / Обновление
КатегорияФильмы DVD RSS лента
Просмотров164 раз (a)
Взят0 раз (a)
Файлы1
Размер743.52 MB (779,634,688 байт)
Добавлен
РаздалViKa  (Искать торренты)
Участники
Участники - Загрузка / Обновление
Просматривают Просматривают Загрузка...

-†- ¿? -†-
« Предыдущая - † Страница † - Следующая »

:: Список Комментариев
Нет комментариев.

 Нет комментариев
Вам запрещенно редактировать, создать или удалять комментарии.
shpv© 2007-2014
Страничка сформирована за 0.201 секунд.
Яндекс.Метрика Rambler's Top100