скачать торрент трекер Friends
 
 Главная  •  Торренты  •  Новые релизы  •  Форум  •   •  Персоны кино  •  Правила  •  ЧаВо

Язык интерфейса
Язык интерфейса:


Привет, Гость
[15] из [15]
Введите Логин:
Введите Пароль:
Регистрация
Восстановить Пароль

Линки
АнекдотыБанкоматВсе теги / меткиДополнительные услугиТехподдержка

Главное Меню
 Главная Торренты Релизы за сегодня Персоны кино Запросы / Предложения (3) Правила ЧаВо Проверка BB кодов Топ 10 Архив новостей Прошлые опросы Форматы файлов Группы Последние комментарии Техподдержка

:: Детали раздачи
Торрент раздача является мультитрекерной — учтите, количество раздающих не будет совпадать с количеством участников на сайте (скачивание на клиентской стороне зависит от настроек uTorrent клиент программы, настройки -> Включить DHT, Обмен пирами и Поиск лок-х пиров).
Если висит надпись, пиры по нулям - не бойтесь, возможность скачать повторно торрент раздачу - есть. Попробуйте, в случае отказа - прокоментируйте или нажмите на "Позвать скачавших".

Роковая встреча / Calcutta Mail (Судхир Мишра / Sudhir Mishra) [2003, Индия, Триллер, DVDRip] MVO + original

Скачать
Магнет
ПомощьКак скачать раздачу
Поделиться
Теги / Меткитриллер
Постер
ОписаниеСтрана: Индия
Жанр: Триллер
Год выпуска: 2003
Продолжительность: 02:08:12

Перевод: Профессиональный (многоголосый закадровый)
Cубтитры: нет
Оригинальная аудиодорожка: хинди



Режиссер: Судхир Мишра / Sudhir Mishra



В ролях: Анил Капур, Рани Мукхерджи, Маниша Койрала, Сатиш Каушик, Сайати Шинде, Саураб Шукла, Девен Верма, Тарун Шукла, Тара Мехта, Ганеш Ядав, Шиваджи Сатхам, Акил Мишра, Хариш Патель, Гопал Сингх, Нирадж Суд, Тику Талсания



Описание: На экране предстает рассказ об Авинаше, приехавшем в Калькутту на поезде Calcutta Mail, калькутском почтово-багажном поезде. Вскоре по проезду он замечает, что кто-то следит за его перемещениями по городу. В доме, где он поселился, живут непонятные ему люди. Авинаш - обычный человек, он не супергерой и приехал в Калькутту а поисках похищенного сына. В процессе появляются новые действующие лица. Здесь и писательница Рима, о промышленник Суджан Сингх, и политикан Гхатак, о инспектор Растоги и другие. Рима ведет двойную жизнь и чтобы докопаться до ее сути, Авинашу придется поломать голову...



Рип, сведение и синхронизация звука: pca1962



http://rating.kinopoisk.ru/106113.gif http://kinoafisha.ru/ratingi0366276.png

http://i56.fastpic.ru/big/2014/0426/9f/cea773d13c0fb26197f84d02bcbcfb9f.png



Исходник: DVD9 (без перевода)
Качество видео: DVDRip
Формат видео: AVI

Видео: XviD, 640x288, 23.976 fps, 1846 kbps
Аудио: AC3, 48 kHz, 2.0 (stereo), 192 kbps (русский)
Аудио 2: AC3, 48 kHz, 5.1 (6 ch), 384 kbps (хинди)





MediaInfo
=== Общие ===
Полное имя : Rokovaya.vstrecha.2003.DVDRip.XviD.pca1962.avi
Формат : AVI
Описание формата : Audio Video Interleave
Профиль формата : OpenDML
Размер файла : 2.18 Гб
Длительность : 2ч 8мин
Общий битрейт : 2 439 кбит/сек
Програмное обеспечение : VirtualDubMod 1.5.10.2 (build 2540/release)
Кодирующая библиотека : VirtualDubMod build 2540/release

=== Видео ===
ID (Идентификатор) : 0
Формат : MPEG-4 Visual
Профиль формата : Advanced Simple@L5
Параметр 'BVOP' : 1
Параметр 'QPel' : Нет
Параметр 'GMC' : No warppoints
Параметр 'Matrix' : Default (H.263)
Идентификатор кодека : XVID
Подпись кодека : XviD
Длительность : 2ч 8мин
Битрейт : 1846 кбит/сек
Ширина кадра : 640 пикселей
Высота кадра : 288 пикселей
Соотношение сторон : 2.222
Частота кадров : 23.976 кадров/сек
Цветовое пространство : YUV
Субдискретизация насыщенности : 4:2:0
Глубина (разрядность) : 8 bits
Тип развертки : Прогрессивная
Режим сжатия : С потерями
Бит/(пиксель*кадр) : 0.418
Размер потока : 1.65 Гб (76%)
Кодирующая библиотека : XviD 73

=== Аудио 1 ===
ID (Идентификатор) : 1
Формат : AC-3
Описание формата : Audio Coding 3
Mode extension : CM (complete main)
Идентификатор кодека : 2000
Длительность : 2ч 8мин
Тип битрейта : Постоянный
Битрейт : 192 кбит/сек
Канал(ы) : 2 каналов
Расположение каналов : Front: L R
Частота дискретизации : 48.0 кГц
Глубина (разрядность) : 16 bits
Режим сжатия : С потерями
Размер потока : 176 Мб (8%)
Расположение потока : Split accross interleaves
Период чередования : 42 мс (1.00 video frame)
Предварительная загрузка : 500 мс

=== Аудио 2 ===
ID (Идентификатор) : 2
Формат : AC-3
Описание формата : Audio Coding 3
Mode extension : CM (complete main)
Идентификатор кодека : 2000
Длительность : 2ч 8мин
Тип битрейта : Постоянный
Битрейт : 384 кбит/сек
Канал(ы) : 6 каналов
Расположение каналов : Front: L C R, Side: L R, LFE
Частота дискретизации : 48.0 кГц
Глубина (разрядность) : 16 bits
Режим сжатия : С потерями
Размер потока : 352 Мб (16%)
Расположение потока : Split accross interleaves
Период чередования : 42 мс (1.00 video frame)
Предварительная загрузка : 500 мс







Скриншот c названием фильма
http://s003.radikal.ru/i204/1404/df/36c052816801.png
http://s43.radikal.ru/i099/1404/df/db7d746e7978.png



Скриншоты
http://s020.radikal.ru/i706/1404/7e/87ca380f22c1.png
http://i021.radikal.ru/1404/b1/96b0926b8676.png
http://s45.radikal.ru/i109/1404/85/a34ff73799aa.png
http://s019.radikal.ru/i636/1404/a1/18170dea02cd.png
http://s020.radikal.ru/i708/1404/3d/ff46893c8dbd.png
http://s018.radikal.ru/i527/1404/18/aac78c2a0ff9.png
http://s019.radikal.ru/i618/1404/25/a3c2a79c41aa.png
http://s019.radikal.ru/i638/1404/b6/f061bc8a3a72.png
http://s019.radikal.ru/i637/1404/21/dc56cbbf2be5.png
http://s52.radikal.ru/i138/1404/2c/70ed9496e18d.png
http://s006.radikal.ru/i215/1404/02/c0f346cdeb21.png
http://s57.radikal.ru/i158/1404/69/9ebae03e0f53.png
http://s019.radikal.ru/i601/1404/64/6848a1bb690f.png
http://s020.radikal.ru/i715/1404/7e/52782f768cc5.png
http://i058.radikal.ru/1404/db/cd480e33eb27.png
http://i051.radikal.ru/1404/60/61dcd0b39953.png
http://s018.radikal.ru/i515/1404/15/a6f09fb069be.png
http://i062.radikal.ru/1404/66/ccfd3f6a8728.png
http://s43.radikal.ru/i101/1404/15/6120b75a991c.png
http://i011.radikal.ru/1404/4f/11e14f9249ec.png
http://s006.radikal.ru/i213/1404/3f/2555d135b0b6.png
http://s020.radikal.ru/i718/1404/6a/3b64a922e1ed.png
http://s45.radikal.ru/i109/1404/19/2f9d6500b948.png
http://i031.radikal.ru/1404/0f/b5de03d29a24.png
http://s43.radikal.ru/i101/1404/af/08341a34f554.png
http://s018.radikal.ru/i510/1404/04/96c1cf79c47e.png
http://s020.radikal.ru/i703/1404/88/ac17322ebe35.png
http://s09.radikal.ru/i182/1404/35/f29a37b2d042.png
http://s005.radikal.ru/i211/1404/e1/651edeec46f3.png
http://s020.radikal.ru/i716/1404/70/31e5f67ab603.png
Скриншоты
Похожие файлы
Загрузка / Обновление
КатегорияФильмы DVD RSS лента
Просмотров209 раз (a)
Взят1 раз (a)
Файлы1
Размер2.18 GB (2,345,564,160 байт)
Добавлен
РаздалViKa  (Искать торренты)
Участники
Участники - Загрузка / Обновление
Просматривают Просматривают Загрузка...

-†- ¿? -†-
« Предыдущая - † Страница † - Следующая »

:: Список Комментариев
Нет комментариев.

 Нет комментариев
Вам запрещенно редактировать, создать или удалять комментарии.
shpv© 2007-2014
Страничка сформирована за 0.088 секунд.
Яндекс.Метрика Rambler's Top100