скачать торрент трекер Friends
 
 Главная  •  Торренты  •  Новые релизы  •  Форум  •   •  Персоны кино  •  Правила  •  ЧаВо

Язык интерфейса
Язык интерфейса:


Привет, Гость
[15] из [15]
Введите Логин:
Введите Пароль:
Регистрация
Восстановить Пароль

Линки
АнекдотыБанкоматВсе теги / меткиДополнительные услугиТехподдержка

Главное Меню
 Главная Торренты Релизы за сегодня Персоны кино Запросы / Предложения (3) Правила ЧаВо Проверка BB кодов Топ 10 Архив новостей Прошлые опросы Форматы файлов Группы Последние комментарии Техподдержка

:: Детали раздачи
Торрент раздача является мультитрекерной — учтите, количество раздающих не будет совпадать с количеством участников на сайте (скачивание на клиентской стороне зависит от настроек uTorrent клиент программы, настройки -> Включить DHT, Обмен пирами и Поиск лок-х пиров).
Если висит надпись, пиры по нулям - не бойтесь, возможность скачать повторно торрент раздачу - есть. Попробуйте, в случае отказа - прокоментируйте или нажмите на "Позвать скачавших".

Влюбленный / Gudia (Гаутам Гхош / Goutam Ghose) [1997, Индия, Драма, DVDRip] AVO (Кашкин)

Скачать
Магнет
ПомощьКак скачать раздачу
Поделиться
Теги / Меткидрама
Постер
ОписаниеСтрана: Индия
Жанр: Драма
Год выпуска: 1997
Продолжительность: 01:58:02

Перевод: Авторский (одноголосый закадровый) Александр Кашкин
Cубтитры: нет
Режиссер: Гаутам Гхош / Goutam Ghose

В ролях: Митхун Чакраборти, Нандана Сен, Пран, Мохан Агаше, Масуд Ахтар, Тику Талсания, Автар Гилл, Анджан Шривастава

Описание: Джонни — популярный певец и музыкант. Звездой его шоу является говорящая кукла Урваши, имеющая облик прекрасной девушки. Певец так привязан к своей кукле, что впадает в отчаяние, когда ее уничтожают безжалостные враги. Чтобы помочь Джонни, любящая его девушка Розмари решает выйти на сцену вместо куклы.

Сэмпл: http://multi-up.com/969718

Качество видео: DVDRip
Формат видео: AVI

Видео: XviD build 46, 720x304 (2.37:1), 29.970 fps, 1506 kbps avg
Аудио: MPEG Layer 3, 48 kHz, 2/0 (L,R) ch, 128.00 kbps avg

MediaInfo
General
Complete name : D:\Vljubijonnij.1997.XviD.DVDRip.avi
Format : AVI
Format/Info : Audio Video Interleave
File size : 1.35 GiB
Duration : 1h 58mn
Overall bit rate : 1 639 Kbps
Movie name : Влюбленный
Director : by Zindagi
Genre : Drama/Music/Romance
Writing application : VirtualDubMod 1.5.10.2 (build 2540/release)
Writing library : VirtualDubMod build 2540/release
Original source form/Name : Movie
Video
Format : xvid
Codec ID : xvid
Duration : 1h 58mn
Bit rate : 1 499 Kbps
Width : 720 pixels
Height : 304 pixels
Display aspect ratio : 2.35
Frame rate : 29.970 fps
Resolution : 24 bits
Bits/(Pixel*Frame) : 0.229
Stream size : 1.24 GiB (91%)
Audio
ID : 1
Format : MPEG Audio
Format version : Version 1
Format profile : Layer 3
Codec ID : 55
Codec ID/Hint : MP3
Duration : 1h 58mn
Bit rate mode : Constant
Bit rate : 128 Kbps
Channel(s) : 2 channels
Sampling rate : 48.0 KHz
Resolution : 16 bits
Stream size : 108 MiB (8%)
Alignment : Aligned on interleaves
Interleave, duration : 33 ms (1.00 video frame)
Interleave, preload duration : 504 ms
Writing library : LAME3.98
Encoding settings : -m j -V 4 -q 3 -lowpass 17 -b 128


Скриншоты
http://s43.radikal.ru/i101/1404/35/ecff4a996125.png
http://s020.radikal.ru/i717/1404/47/1f74baa59bc1.png
http://i054.radikal.ru/1404/87/53a3fedec3e8.png
http://i022.radikal.ru/1404/48/bf62c290a038.png
http://s018.radikal.ru/i519/1404/81/a2e2366fc287.png
http://s019.radikal.ru/i604/1404/37/dfc0fd113255.png
http://s51.radikal.ru/i131/1404/3e/97fb9e986396.png
http://s020.radikal.ru/i709/1404/b0/6321b9b1ceb5.png
http://i057.radikal.ru/1404/70/f5a2901d2ae8.png
http://s52.radikal.ru/i137/1404/ed/c4f013b8256a.png
Скриншоты
Похожие файлы
Загрузка / Обновление
КатегорияФильмы DVD RSS лента
Просмотров170 раз (a)
Взят0 раз (a)
Файлы1
Размер1.35 GB (1,450,692,608 байт)
Добавлен
РаздалViKa  (Искать торренты)
Участники
Участники - Загрузка / Обновление
Просматривают Просматривают Загрузка...

-†- ¿? -†-
« Предыдущая - † Страница † - Следующая »

:: Список Комментариев
Нет комментариев.

 Нет комментариев
Вам запрещенно редактировать, создать или удалять комментарии.
shpv© 2007-2014
Страничка сформирована за 0.055 секунд.
Яндекс.Метрика Rambler's Top100