скачать торрент трекер Friends
 
 Главная  •  Торренты  •  Новые релизы  •  Форум  •   •  Персоны кино  •  Правила  •  ЧаВо

Язык интерфейса
Язык интерфейса:


Привет, Гость
[15] из [15]
Введите Логин:
Введите Пароль:
Регистрация
Восстановить Пароль

Линки
АнекдотыБанкоматВсе теги / меткиДополнительные услугиТехподдержка

Главное Меню
 Главная Торренты Релизы за сегодня Персоны кино Запросы / Предложения (3) Правила ЧаВо Проверка BB кодов Топ 10 Архив новостей Прошлые опросы Форматы файлов Группы Последние комментарии Техподдержка

:: Детали раздачи
Торрент раздача является мультитрекерной — учтите, количество раздающих не будет совпадать с количеством участников на сайте (скачивание на клиентской стороне зависит от настроек uTorrent клиент программы, настройки -> Включить DHT, Обмен пирами и Поиск лок-х пиров).
Если висит надпись, пиры по нулям - не бойтесь, возможность скачать повторно торрент раздачу - есть. Попробуйте, в случае отказа - прокоментируйте или нажмите на "Позвать скачавших".

Без шуток / No Kidding (Джералд Томас / Gerald Thomas) [1961, Великобритания, комедия, DVDRip] VO (Вадим Назаров) + Original (ENG)

Скачать
Магнет
ПомощьКак скачать раздачу
Поделиться
Теги / Меткикомедия
Постер
ОписаниеСтрана: Великобритания
Жанр: комедия
Год выпуска: 1961
Продолжительность: 01:23:26

Перевод: одноголосый закадровый - Вадим Назаров
Cубтитры: нет
Оригинальная аудиодорожка: английская

Режиссер: Джералд Томас / Gerald Thomas

В ролях: Лесли Филлипс, Джеральдин МакЮэн, Джулия Локвуд, Айрин Хэндл, Ноэл Пёрселл, Джоан Хиксон, Джун Яго, Сирил Рэймонд, Эсма Кэннон, Алан Гиффорд

Описание: Молодой семье достается в наследство поместье в английской глубинке. Глава семьи, вспомнив прекрасное время, которое он в молодости провел в этом поместье, решает, что пора их семье круто поменять свою жизнь. Вместе с женой они разрабатывают план, по превращению поместья в летний лагерь для детского отдыха. Но, как обычно, все гладко бывает только на бумаге.

За исходный DVD Большое Спасибо Al12

Сэмпл: http://multi-up.com/969815

Качество видео: DVDRip
Формат видео: AVI

Видео: 672x400 (1.68:1), 25 fps, XviD build 73 ~1949 kbps avg, 0.29 bit/pixel
Аудио 1: 48 kHz, AC3 Dolby Digital, 2/0 (L,R) ch, ~192 kbps (русский одноголосый закадровый перевод) - Вадим Назаров
Аудио 2: 48 kHz, AC3 Dolby Digital, 2/0 (L,R) ch, ~192 kbps (оригинальная английская звуковая дорожка)

MediaInfo
General
Complete name : ... \No Kidding 1961\No Kidding.avi
Format : AVI
Format/Info : Audio Video Interleave
File size : 1.37 GiB
Duration : 1h 23mn
Overall bit rate : 2 349 Kbps
Writing application : VirtualDubMod 1.5.10.3 | www.virtualdub-fr.org || (build 2550/release)
Writing library : VirtualDubMod build 2550/release

Video
ID : 0
Format : MPEG-4 Visual
Format profile : Advanced Simple@L5
Format settings, BVOP : 2
Format settings, QPel : No
Format settings, GMC : No warppoints
Format settings, Matrix : Default (H.263)
Codec ID : DX50
Codec ID/Hint : DivX 5
Duration : 1h 23mn
Bit rate : 1 951 Kbps
Width : 672 pixels
Height : 400 pixels
Display aspect ratio : 1.680
Frame rate : 25.000 fps
Color space : YUV
Chroma subsampling : 4:2:0
Bit depth : 8 bits
Scan type : Progressive
Compression mode : Lossy
Bits/(Pixel*Frame) : 0.290
Stream size : 1.14 GiB (83%)
Writing library : XviD 73

Audio #1
ID : 1
Format : AC-3
Format/Info : Audio Coding 3
Mode extension : CM (complete main)
Format settings, Endianness : Big
Codec ID : 2000
Duration : 1h 23mn
Bit rate mode : Constant
Bit rate : 192 Kbps
Channel(s) : 2 channels
Channel positions : Front: L R
Sampling rate : 48.0 KHz
Bit depth : 16 bits
Compression mode : Lossy
Stream size : 115 MiB (8%)
Alignment : Split accross interleaves
Interleave, duration : 40 ms (1.00 video frame)
Interleave, preload duration : 500 ms

Audio #2
ID : 2
Format : AC-3
Format/Info : Audio Coding 3
Mode extension : CM (complete main)
Format settings, Endianness : Big
Codec ID : 2000
Duration : 1h 23mn
Bit rate mode : Constant
Bit rate : 192 Kbps
Channel(s) : 2 channels
Channel positions : Front: L R
Sampling rate : 48.0 KHz
Bit depth : 16 bits
Compression mode : Lossy
Stream size : 115 MiB (8%)
Alignment : Split accross interleaves
Interleave, duration : 40 ms (1.00 video frame)
Interleave, preload duration : 500 ms


Скриншоты
[img]http://s018.radikal.ru/i515/1404/de/642220a7918ct.jpg[/img][img]http://s003.radikal.ru/i204/1404/15/4bec11e9efd5t.jpg[/img][img]http://s005.radikal.ru/i210/1404/1d/aab3a0bab57et.jpg[/img][img]http://s018.radikal.ru/i515/1404/81/708bea452012t.jpg[/img][img]http://s020.radikal.ru/i718/1404/8e/fbf11752d7bbt.jpg[/img][img]http://s019.radikal.ru/i639/1404/4c/dc6d36c7ba7ft.jpg[/img][img]http://s001.radikal.ru/i196/1404/bf/362ac461076ft.jpg[/img][img]http://i062.radikal.ru/1404/01/f27447bdd9a1t.jpg[/img][img]http://i011.radikal.ru/1404/e8/30fe36ad7426t.jpg[/img][img]http://s020.radikal.ru/i709/1404/15/a215f2313b00t.jpg" alt="http://s020.radikal.ru/i723/1404/5a/ce268c99c444t.jpg[/img][img]http://s018.radikal.ru/i515/1404/de/642220a7918ct.jpg[/img][img]http://s003.radikal.ru/i204/1404/15/4bec11e9efd5t.jpg[/img][img]http://s005.radikal.ru/i210/1404/1d/aab3a0bab57et.jpg[/img][img]http://s018.radikal.ru/i515/1404/81/708bea452012t.jpg[/img][img]http://s020.radikal.ru/i718/1404/8e/fbf11752d7bbt.jpg[/img][img]http://s019.radikal.ru/i639/1404/4c/dc6d36c7ba7ft.jpg[/img][img]http://s001.radikal.ru/i196/1404/bf/362ac461076ft.jpg[/img][img]http://i062.radikal.ru/1404/01/f27447bdd9a1t.jpg[/img][img]http://i011.radikal.ru/1404/e8/30fe36ad7426t.jpg[/img][img]http://s020.radikal.ru/i709/1404/15/a215f2313b00t.jpg" />
Похожие файлы
Загрузка / Обновление
КатегорияФильмы DVD RSS лента
Просмотров167 раз (a)
Взят0 раз (a)
Файлы1
Размер1.37 GB (1,470,117,888 байт)
Добавлен
РаздалViKa  (Искать торренты)
Участники
Участники - Загрузка / Обновление
Просматривают Просматривают Загрузка...

-†- ¿? -†-
« Предыдущая - † Страница † - Следующая »

:: Список Комментариев
Нет комментариев.

 Нет комментариев
Вам запрещенно редактировать, создать или удалять комментарии.
shpv© 2007-2014
Страничка сформирована за 2.115 секунд.
Яндекс.Метрика Rambler's Top100