скачать торрент трекер Friends
 
 Главная  •  Торренты  •  Новые релизы  •  Форум  •   •  Персоны кино  •  Правила  •  ЧаВо

Язык интерфейса
Язык интерфейса:


Привет, Гость
[15] из [15]
Введите Логин:
Введите Пароль:
Регистрация
Восстановить Пароль

Линки
АнекдотыБанкоматВсе теги / меткиДополнительные услугиТехподдержка

Главное Меню
 Главная Торренты Релизы за сегодня Персоны кино Запросы / Предложения (3) Правила ЧаВо Проверка BB кодов Топ 10 Архив новостей Прошлые опросы Форматы файлов Группы Последние комментарии Техподдержка

:: Детали раздачи
Торрент раздача является мультитрекерной — учтите, количество раздающих не будет совпадать с количеством участников на сайте (скачивание на клиентской стороне зависит от настроек uTorrent клиент программы, настройки -> Включить DHT, Обмен пирами и Поиск лок-х пиров).
Если висит надпись, пиры по нулям - не бойтесь, возможность скачать повторно торрент раздачу - есть. Попробуйте, в случае отказа - прокоментируйте или нажмите на "Позвать скачавших".

Механик / The Mechanic (Саймон Уэст / Simon West) [2011, США, Боевик, триллер, драма, BDRip-AVC] Dub + Sub Rus, Eng + Original Eng

Скачать
Магнет
ПомощьКак скачать раздачу
Поделиться
Теги / Меткибоевик, триллер, драма
Постер
ОписаниеСтрана: США
Жанр: Боевик, триллер, драма
Год выпуска: 2011
Продолжительность: 01:32:44

Перевод: Профессиональный (дублированный)
Cубтитры: русские,английские
Оригинальная аудиодорожка: английский

Режиссер: Саймон Уэст / Simon West

В ролях: Джейсон Стэтхэм, Бен Фостер, Тони Голдуин, Дональд Сазерленд, Джефф Чейз, Мини Анден, Джеймс Логан, Эдди Дж. Фернандез, Джошуа Бриджуотер, Джон МакКоннелл, Криста Кэмпбелл, Джоэль Дэвис, Марк Наттер, А. Брент Карлсон, Лара Грис, Лэнс Э. Николс, Дж.Д. Эвермор, Ада Мишель Лориданс, Линззи Заорски, Доун Неуфелд, Молли Розенблатт, Билл Шарпф, Джон Тига, Дэвид Лейтч, Джен Ортега, Пол Абрахам, Дэвид Дальгрен, Стюарт Грир, Катаржина Волейджио, Дэнни Космо Хиггинботтом, Дерек Шрек, Бо Брассо, Грант Кейс, Джеральдин Гленн, Ник Джонс, Марк Крутов, Аарон Сэкстон

Описание: Артур Бишоп — «Механик», высокопрофессиональный безукоризненный киллер, который всегда работает по правилам — «чисто» и без следов. Такая работа требует полного самообладания и беспристрастности, и в своём деле ему нет равных. Бишоп всегда работал один, но ему пришлось стать наставником молодого и отчаянного Стива. Методичный профессионал и импульсивный ученик теперь на пару «устраняют проблемы», но рано или поздно они сойдутся в смертельной схватке…

Доп. информация:
http://www.kinopoisk.ru/rating/195615.gif [img]http://i5.imageban.ru/out/2012/11/05/f1eb31b98aa6805df6dd423a8bb5c0d3.png" alt="http://imdb.snick.ru/ratefor/03/tt10472399.png[/img][img]http://i5.imageban.ru/out/2012/11/05/f1eb31b98aa6805df6dd423a8bb5c0d3.png" />

Качество видео: BDRip-AVC |Механик / The Mechanic (2011) 1080p BD-Remux|
Формат видео: MKV

Видео: 1024 x 432 (4:2:0) at 23.976 fps AVC at 2448 Кбит/сек
Аудио: AC3 Dolby Digital; 448 kbps; 6 Ch; 48 kHz RUS
Аудио 2: AC3 Dolby Digital; 448 kbps; 6 Ch; 48 kHz ENG
Формат субтитров: softsub (SRT)
Доп. информация о субтитрах: отключаемые

MediaInfo
General
Unique ID : 210921174601641938620039214719836341626 (0x9EADF0CB9FDE4821AA2B68FDDB3FC57A)
Complete name : F:\Фильмы\Механик\Mehanik.2011.x264.BDRip.(AVC).mkv
Format : Matroska
Format version : Version 2
File size : 2.16 GiB
Duration : 1h 32mn
Overall bit rate : 3 340 Kbps
Movie name : Mehanik (2011)x264 BDRip
Encoded date : UTC 2011-07-11 10:05:06
Writing application : mkvmerge v4.0.0 ('The Stars were mine') built on Jun 6 2010 16:18:42
Writing library : libebml v1.0.0 + libmatroska v1.0.0

Video
ID : 1
Format : AVC
Format/Info : Advanced Video Codec
Format profile : High@L4.1
Format settings, CABAC : Yes
Format settings, ReFrames : 10 frames
Codec ID : V_MPEG4/ISO/AVC
Duration : 1h 32mn
Bit rate : 2 448 Kbps
Width : 1 024 pixels
Height : 432 pixels
Display aspect ratio : 2.40:1
Frame rate mode : Constant
Frame rate : 23.976 fps
Color space : YUV
Chroma subsampling : 4:2:0
Bit depth : 8 bits
Scan type : Progressive
Bits/(Pixel*Frame) : 0.231
Stream size : 1.54 GiB (71%)
Writing library : x264 core 92 r1510 33d382a
Encoding settings : cabac=1 / ref=10 / deblock=1:-3:-3 / analyse=0x3:0x113 / me=umh / subme=7 / psy=1 / psy_rd=1.00:0.00 / mixed_ref=1 / me_range=48 / chroma_me=1 / trellis=2 / 8x8dct=1 / cqm=0 / deadzone=21,11 / fast_pskip=0 / chroma_qp_offset=-5 / threads=6 / sliced_threads=0 / nr=0 / decimate=1 / interlaced=0 / constrained_intra=0 / bframes=10 / b_pyramid=2 / b_adapt=2 / b_bias=0 / direct=3 / wpredb=1 / wpredp=2 / keyint=250 / keyint_min=25 / scenecut=40 / intra_refresh=0 / rc_lookahead=40 / rc=2pass / mbtree=1 / bitrate=2448 / ratetol=1.0 / qcomp=0.60 / qpmin=10 / qpmax=51 / qpstep=4 / cplxblur=20.0 / qblur=0.5 / ip_ratio=1.40 / aq=1:1.00
Default : No
Forced : No

Audio #1
ID : 2
Format : AC-3
Format/Info : Audio Coding 3
Mode extension : CM (complete main)
Format settings, Endianness : Big
Codec ID : A_AC3
Duration : 1h 32mn
Bit rate mode : Constant
Bit rate : 448 Kbps
Channel(s) : 6 channels
Channel positions : Front: L C R, Side: L R, LFE
Sampling rate : 48.0 KHz
Bit depth : 16 bits
Compression mode : Lossy
Stream size : 297 MiB (13%)
Default : No
Forced : No

Audio #2
ID : 3
Format : AC-3
Format/Info : Audio Coding 3
Mode extension : CM (complete main)
Format settings, Endianness : Big
Codec ID : A_AC3
Duration : 1h 32mn
Bit rate mode : Constant
Bit rate : 448 Kbps
Channel(s) : 6 channels
Channel positions : Front: L C R, Side: L R, LFE
Sampling rate : 48.0 KHz
Bit depth : 16 bits
Compression mode : Lossy
Stream size : 297 MiB (13%)
Default : No
Forced : No

Text #1
ID : 4
Format : UTF-8
Codec ID : S_TEXT/UTF8
Codec ID/Info : UTF-8 Plain Text
Default : No
Forced : No

Text #2
ID : 5
Format : UTF-8
Codec ID : S_TEXT/UTF8
Codec ID/Info : UTF-8 Plain Text
Default : No
Forced : No

Menu
00:00:00.000 : :Chapter 01
00:07:03.464 : :Chapter 02
00:12:50.936 : :Chapter 03
00:17:09.403 : :Chapter 04
00:22:30.140 : :Chapter 05
00:31:38.938 : :Chapter 06
00:36:59.967 : :Chapter 07
00:39:56.018 : :Chapter 08
00:48:35.537 : :Chapter 09
00:54:08.828 : :Chapter 10
01:03:33.392 : :Chapter 11
01:07:18.993 : :Chapter 12
01:12:54.953 : :Chapter 13
01:16:58.530 : :Chapter 14
01:19:37.022 : :Chapter 15
01:23:10.986 : :Chapter 16


Скриншот c названием фильма
http://i56.fastpic.ru/thumb/2014/0427/34/3262712a1fc875610c3af3215b4a9334.jpeg


Скриншоты
[img]http://i55.fastpic.ru/thumb/2014/0427/02/82c33a6475d2a7410f8428690ea7ef02.jpeg[/img][img]http://i55.fastpic.ru/thumb/2014/0427/37/8043a7458543adc4fa0f39ba390c4737.jpeg[/img][img]http://i55.fastpic.ru/thumb/2014/0427/dd/b9b45a2a9686972d9c93ed4c706258dd.jpeg[/img][img]http://i56.fastpic.ru/thumb/2014/0427/a9/2c9b9b4939f510dd8eb186faa79e98a9.jpeg" alt="http://i56.fastpic.ru/thumb/2014/0427/16/c54482173ecfb77dcb6b86f3959f8216.jpeg[/img][img]http://i55.fastpic.ru/thumb/2014/0427/02/82c33a6475d2a7410f8428690ea7ef02.jpeg[/img][img]http://i55.fastpic.ru/thumb/2014/0427/37/8043a7458543adc4fa0f39ba390c4737.jpeg[/img][img]http://i55.fastpic.ru/thumb/2014/0427/dd/b9b45a2a9686972d9c93ed4c706258dd.jpeg[/img][img]http://i56.fastpic.ru/thumb/2014/0427/a9/2c9b9b4939f510dd8eb186faa79e98a9.jpeg" />


Сравнения
http://rutracker.org/forum/viewtopic.php?t=3557864
http://screenshotcomparison.com/comparison/72239
Похожие файлы
Загрузка / Обновление
КатегорияФильмы AVI RSS лента
Просмотров144 раз (a)
Взят2 раз (a)
Файлы1
Размер2.16 GB (2,323,454,174 байт)
Добавлен
РаздалViKa  (Искать торренты)
Участники
Участники - Загрузка / Обновление
Просматривают Просматривают Загрузка...

-†- ¿? -†-
« Предыдущая - † Страница † - Следующая »

:: Список Комментариев
Нет комментариев.

 Нет комментариев
Вам запрещенно редактировать, создать или удалять комментарии.
shpv© 2007-2014
Страничка сформирована за 0.175 секунд.
Яндекс.Метрика Rambler's Top100