скачать торрент трекер Friends
 
 Главная  •  Торренты  •  Новые релизы  •  Форум  •   •  Персоны кино  •  Правила  •  ЧаВо

Язык интерфейса
Язык интерфейса:


Привет, Гость
[15] из [15]
Введите Логин:
Введите Пароль:
Регистрация
Восстановить Пароль

Линки
АнекдотыБанкоматВсе теги / меткиДополнительные услугиТехподдержка

Главное Меню
 Главная Торренты Релизы за сегодня Персоны кино Запросы / Предложения (3) Правила ЧаВо Проверка BB кодов Топ 10 Архив новостей Прошлые опросы Форматы файлов Группы Последние комментарии Техподдержка

:: Детали раздачи
Торрент раздача является мультитрекерной — учтите, количество раздающих не будет совпадать с количеством участников на сайте (скачивание на клиентской стороне зависит от настроек uTorrent клиент программы, настройки -> Включить DHT, Обмен пирами и Поиск лок-х пиров).
Если висит надпись, пиры по нулям - не бойтесь, возможность скачать повторно торрент раздачу - есть. Попробуйте, в случае отказа - прокоментируйте или нажмите на "Позвать скачавших".

Иосиф и его братья / Проданный своими братьями / Giuseppe Venduto Dai Fratelli / The Story of Joseph and His Brethren (Ирвинг Раппер / Irving Rapper, Лучиано Риччи / Luciano Ricci) [1962, Италия, Югославия, Драма, библейский, DVDRip] VO + Sub Rus +

Скачать
Магнет
ПомощьКак скачать раздачу
Поделиться
Теги / Меткидрама, библейский
Постер
ОписаниеСтрана: Италия, Югославия
Жанр: Драма, библейский
Год выпуска: 1962
Продолжительность: 1:38:27

Перевод: Одноголосый закадровый
Cубтитры: русские
Оригинальная аудиодорожка: итальянский

Режиссер: Ирвинг Раппер / Irving Rapper, Лучиано Риччи / Luciano Ricci

В ролях: Джеффри Хорн / Geoffrey Horne, Роберт Морли / Robert Morley, Белинда Ли / Belinda Lee, Вира Силенти / Vira Silenti, Теренс Хилл / Terence Hill, Карло Джустини / Carlo Giustini, Финлэй Карри / Finlay Currie, Артуро Доминичи / Arturo Dominici, Роберт Ритти / Robert Rietty, Джулиан Брукс / Julian Brooks, Мимо Билли / Mimo Billi, Марко Гульельми / Marco Guglielmi, Данте ДиПаоло / Dante DiPaolo, Чарльз Борромел / Charles Borromel

Описание: История Иосифа, сына Иакова (называемого Израилем), чьи братья из-за злобы и зависти продают его работорговцу, направляющемуся в Египет. Острый ум и знания Иосифа были оценены во дворце, и молодой человек становится во главе стражи фараона…

Доп. информация: Фильм взят отсюда http://rutracker.org/forum/viewtopic.php?t=4451173

Сэмпл: http://multi-up.com/969809

Качество видео: DVDRip
Формат видео: AVI

Видео: 720x288 (2.50:1), 25 fps, DivX Codec 5.05 ~898 kbps avg, 0.17 bit/pixel
Аудио 1: 48 kHz, MPEG Layer 3, 2 ch, ~128.00 kbps avg(Русский)
Аудио 2: 48 kHz, MPEG Layer 3, 2 ch, ~128.00 kbps avg(Итальянский)
Формат субтитров: softsub (SRT)
Доп. информация о субтитрах: Русские внешние (Eksodus)

MediaInfo
Общее
Полное имя : F:\С моей озвучкой\Иосиф, и его братья\Giuseppe Venduto Dai Fratelli.avi
Формат : AVI
Формат/Информация : Audio Video Interleave
Размер файла : 823 Мбайт
Продолжительность : 1 ч. 38 м.
Общий поток : 1170 Кбит/сек
Программа кодирования : VirtualDubModRus 1.5.10.2 (build 2542/release)
Библиотека кодирования : VirtualDubMod build 2542/release

Видео
Идентификатор : 0
Формат : MPEG-4 Visual
Параметр BVOP формата : Нет
Параметр QPel формата : Нет
Параметр GMC формата : Без точки перехода
Параметр матрицы формата : Default (H.263)
Идентификатор кодека : DX50
Идентификатор кодека/Подсказка : DivX 5
Продолжительность : 1 ч. 38 м.
Битрейт : 899 Кбит/сек
Ширина : 720 пикселей
Высота : 288 пикселей
Соотношение сторон : 2,500
Частота кадров : 25,000 кадров/сек
Цветовое пространство : YUV
Субдискретизация насыщенности : 4:2:0
Битовая глубина : 8 бит
Тип развёртки : Прогрессивная
Метод сжатия : С потерями
Бит/(Пиксели*Кадры) : 0.173
Размер потока : 633 Мбайт (77%)
Библиотека кодирования : DivX 5.0.5 (UTC 2003-04-24)

Аудио #1
Идентификатор : 1
Формат : MPEG Audio
Версия формата : Version 1
Профиль формата : Layer 3
Режим : Joint stereo
Расширение режима : MS Stereo
Идентификатор кодека : 55
Идентификатор кодека/Подсказка : MP3
Продолжительность : 1 ч. 38 м.
Вид битрейта : Постоянный
Битрейт : 128 Кбит/сек
Каналы : 2 канала
Частота : 48,0 КГц
Метод сжатия : С потерями
Размер потока : 90,1 Мбайт (11%)
Выравнивание : Соединение по промежуткам
Продолжительность промежутка : 40 мс. (1,00 видеокадр)
Время предзагрузки промежутка : 504 мс.
Библиотека кодирования : LAME3.98

Аудио #2
Идентификатор : 2
Формат : MPEG Audio
Версия формата : Version 1
Профиль формата : Layer 3
Режим : Joint stereo
Расширение режима : MS Stereo
Идентификатор кодека : 55
Идентификатор кодека/Подсказка : MP3
Продолжительность : 1 ч. 38 м.
Вид битрейта : Постоянный
Битрейт : 128 Кбит/сек
Каналы : 2 канала
Частота : 48,0 КГц
Метод сжатия : С потерями
Размер потока : 90,1 Мбайт (11%)
Выравнивание : Разделение по промежуткам
Продолжительность промежутка : 40 мс. (1,00 видеокадр)
Время предзагрузки промежутка : 500 мс.


Скриншоты
[img]http://i56.fastpic.ru/thumb/2014/0427/18/fed1de1b56604e43f7428baded5a6b18.jpeg[/img][img]http://i55.fastpic.ru/thumb/2014/0427/01/f2ad644aa1eb73a0b76e1620effb0801.jpeg[/img][img]http://i55.fastpic.ru/thumb/2014/0427/86/c794ddbfc95b7acc0d040a7a18eaa686.jpeg[/img][img]http://i56.fastpic.ru/thumb/2014/0427/13/7b8b10e80a3ef1776ea71bafe3be4213.jpeg[/img][img]http://i55.fastpic.ru/thumb/2014/0427/74/004d9a1fe723d501e38dc9972f414374.jpeg" alt="http://i56.fastpic.ru/thumb/2014/0427/bb/067a3ade827fdc4e7c98de176c0992bb.jpeg[/img][img]http://i56.fastpic.ru/thumb/2014/0427/18/fed1de1b56604e43f7428baded5a6b18.jpeg[/img][img]http://i55.fastpic.ru/thumb/2014/0427/01/f2ad644aa1eb73a0b76e1620effb0801.jpeg[/img][img]http://i55.fastpic.ru/thumb/2014/0427/86/c794ddbfc95b7acc0d040a7a18eaa686.jpeg[/img][img]http://i56.fastpic.ru/thumb/2014/0427/13/7b8b10e80a3ef1776ea71bafe3be4213.jpeg[/img][img]http://i55.fastpic.ru/thumb/2014/0427/74/004d9a1fe723d501e38dc9972f414374.jpeg" />
Похожие файлы
Загрузка / Обновление
КатегорияФильмы DVD RSS лента
Просмотров274 раз (a)
Взят3 раз (a)
Файлы3
Размер823.71 MB (863,721,788 байт)
Добавлен
РаздалViKa  (Искать торренты)
Участники
Участники - Загрузка / Обновление
Просматривают Просматривают Загрузка...

-†- ¿? -†-
« Предыдущая - † Страница † - Следующая »

:: Список Комментариев
Нет комментариев.

 Нет комментариев
Вам запрещенно редактировать, создать или удалять комментарии.
shpv© 2007-2014
Страничка сформирована за 0.169 секунд.
Яндекс.Метрика Rambler's Top100