скачать торрент трекер Friends
 
 Главная  •  Торренты  •  Новые релизы  •  Форум  •   •  Персоны кино  •  Правила  •  ЧаВо

Язык интерфейса
Язык интерфейса:


Привет, Гость
[15] из [15]
Введите Логин:
Введите Пароль:
Регистрация
Восстановить Пароль

Линки
АнекдотыБанкоматВсе теги / меткиДополнительные услугиТехподдержка

Главное Меню
 Главная Торренты Релизы за сегодня Персоны кино Запросы / Предложения (3) Правила ЧаВо Проверка BB кодов Топ 10 Архив новостей Прошлые опросы Форматы файлов Группы Последние комментарии Техподдержка

:: Детали раздачи
Торрент раздача является мультитрекерной — учтите, количество раздающих не будет совпадать с количеством участников на сайте (скачивание на клиентской стороне зависит от настроек uTorrent клиент программы, настройки -> Включить DHT, Обмен пирами и Поиск лок-х пиров).
Если висит надпись, пиры по нулям - не бойтесь, возможность скачать повторно торрент раздачу - есть. Попробуйте, в случае отказа - прокоментируйте или нажмите на "Позвать скачавших".

Комедия ошибок / Chup Chup Ke (Приядаршан, Куки В. Гулати / Priyadarshan, Kookie V. Gulati) [2006, Индия, Драма, мелодрама, комедия, DVDRip] MVO (Формат AB)

Скачать
Магнет
ПомощьКак скачать раздачу
Поделиться
Теги / Меткидрама, мелодрама, комедия
Постер
ОписаниеСтрана: Индия
Жанр: Драма, мелодрама, комедия
Год выпуска: 2006
Продолжительность: 02:44:42

Перевод: Профессиональный (многоголосый закадровый) Формат AB
Cубтитры: нет
Режиссер: Приядаршан, Куки В. Гулати / Priyadarshan, Kookie V. Gulati

В ролях: Шахид Капур, Карина Капур, Неха Дхупия, Сунил Шетти, Переш Равал, Раджпал Ядав, Анупам Кхер

Описание: Молодой человек ради денег по страховому полису пытается покончить жизнь самоубийством, но его спасают рыбаки и принимают за глухонемого миллионера. Комедия получает очередной виток развития, когда он встречает по-настоящему глухонемую девушку и влюбляется в нее.

Доп. информация: Исходник DVD-5 (СПАСИБО! alesha-73)

Сэмпл: http://multi-up.com/969818

Качество видео: DVDRip
Формат видео: AVI

Видео: XviD build 50, 704x304 (2.32:1), 23.976 fps, 1137 kbps avg
Аудио: MPEG Layer 3, 48 kHz, 2/0 (L,R) ch, 128.00 kbps avg

MediaInfo
General
Complete name : D:\Komediya.oshibok.2006.XviD.DVDRip-Dego.avi
Format : AVI
Format/Info : Audio Video Interleave
File size : 1.47 GiB
Duration : 2h 44mn
Overall bit rate : 1 275 Kbps
Writing application : VirtualDubMod 1.5.10.2 (build 2540/release)
Writing library : VirtualDubMod build 2540/release

Video
ID : 0
Format : MPEG-4 Visual
Format profile : AdvancedSimple@L5
Format settings, BVOP : Yes
Format settings, QPel : No
Format settings, GMC : No warppoints
Format settings, Matrix : Default (MPEG)
Codec ID : XVID
Codec ID/Hint : XviD
Duration : 2h 44mn
Bit rate : 1 138 Kbps
Width : 704 pixels
Height : 304 pixels
Display aspect ratio : 2.35
Frame rate : 23.976 fps
Resolution : 24 bits
Colorimetry : 4:2:0
Scan type : Progressive
Bits/(Pixel*Frame) : 0.222
Stream size : 1.31 GiB (89%)
Writing library : XviD 1.2.1 (UTC 2008-12-04)

Audio
ID : 1
Format : MPEG Audio
Format version : Version 1
Format profile : Layer 3
Codec ID : 55
Codec ID/Hint : MP3
Duration : 2h 44mn
Bit rate mode : Constant
Bit rate : 128 Kbps
Channel(s) : 2 channels
Sampling rate : 48.0 KHz
Resolution : 16 bits
Stream size : 151 MiB (10%)
Alignment : Aligned on interleaves
Interleave, duration : 42 ms (1.00 video frame)
Interleave, preload duration : 504 ms
Writing library : LAME3.98r
Encoding settings : -m s -V 4 -q 2 -lowpass 17 -b 128


Скриншоты
http://s020.radikal.ru/i708/1404/af/cc264662a459.png
http://s017.radikal.ru/i442/1404/40/7b96bd2626bb.png
http://s018.radikal.ru/i515/1404/86/2cec960146e1.png
http://i022.radikal.ru/1404/99/72c8034da436.png
http://s020.radikal.ru/i722/1404/a2/f5790369bbb5.png
http://s019.radikal.ru/i639/1404/b0/405d4488e36f.png
http://s006.radikal.ru/i214/1404/72/e7c1f64b0de8.png
http://s020.radikal.ru/i723/1404/13/bea9808360d0.png
http://s019.radikal.ru/i626/1404/6c/154f1d92b9df.png
http://i062.radikal.ru/1404/a7/8a3b6ae71f0b.png



Сравнения
http://rutracker.org/forum/viewtopic.php?t=428256 => http://screenshotcomparison.com/comparison/72240/picture:0
Перевод тот же.
Скриншоты
Похожие файлы
Загрузка / Обновление
КатегорияФильмы DVD RSS лента
Просмотров203 раз (a)
Взят3 раз (a)
Файлы1
Размер1.47 GB (1,575,133,184 байт)
Добавлен
РаздалViKa  (Искать торренты)
Участники
Участники - Загрузка / Обновление
Просматривают Просматривают Загрузка...

-†- ¿? -†-
« Предыдущая - † Страница † - Следующая »

:: Список Комментариев
Нет комментариев.

 Нет комментариев
Вам запрещенно редактировать, создать или удалять комментарии.
shpv© 2007-2014
Страничка сформирована за 0.254 секунд.
Яндекс.Метрика Rambler's Top100