скачать торрент трекер Friends
 
 Главная  •  Торренты  •  Новые релизы  •  Форум  •   •  Персоны кино  •  Правила  •  ЧаВо

Язык интерфейса
Язык интерфейса:


Привет, Гость
[15] из [15]
Введите Логин:
Введите Пароль:
Регистрация
Восстановить Пароль

Линки
АнекдотыБанкоматВсе теги / меткиДополнительные услугиТехподдержка

Главное Меню
 Главная Торренты Релизы за сегодня Персоны кино Запросы / Предложения (3) Правила ЧаВо Проверка BB кодов Топ 10 Архив новостей Прошлые опросы Форматы файлов Группы Последние комментарии Техподдержка

:: Детали раздачи
Торрент раздача является мультитрекерной — учтите, количество раздающих не будет совпадать с количеством участников на сайте (скачивание на клиентской стороне зависит от настроек uTorrent клиент программы, настройки -> Включить DHT, Обмен пирами и Поиск лок-х пиров).
Если висит надпись, пиры по нулям - не бойтесь, возможность скачать повторно торрент раздачу - есть. Попробуйте, в случае отказа - прокоментируйте или нажмите на "Позвать скачавших".

Чернобыль: Последнее предупреждение / Chernobyl: The Final Warning (Энтони Пэйдж / Anthony Page) [1991, США, Великобритания, СССР, Драма, SATRip] Dub

Скачать
Магнет
ПомощьКак скачать раздачу
Поделиться
Теги / Меткидрама
Постер
ОписаниеСтрана: США, Великобритания, СССР
Жанр: Драма
Год выпуска: 1991
Продолжительность: 1:33:52

Перевод: Закадровый , дублированный

Режиссер: Энтони Пэйдж / Anthony Page

В ролях: Джон Войт, Джейсон Робардс, Самми Дэвис, Аннетт Кросби, Иан МакДайармид, Винсент Риотта, Стивен Хартли, Джим Ишида, Алекс Нортон, Дебора Уэстон, Тревор Купер, Себастьян Шоу, Энн Дайсон, Крис Уокер, Лоркан Кранич, Кейт Эдвардс, Сэм Грэм, Карен Мигер, Джек Клэфф, Джонатан Хачетт, Каролина Милмо, Мэри Грэйди, Юрий Петров (II), О. Новиков, Игорь Ливанов, Александр Краснопольский, Дмитрий Матвеев, Владимир Трошин, Андрей Смелый, Вадим Ледогоров, Дмитрий Орлов (V), Алексей Елизаветский, Елена Покатилова, Наталья Ковалёва, Карина Дымонт, Кеннет Локер, Николас Локер, Шир Гэйл, Геннадий Юхтин, Артур Попов, Анатолий Немов, Глеб Плаксин, Сергей Реусенко, Валерий Половинкин, Игорь Андреев, Тамара Воронкова, Юлия Живейнова, Владимир Червяков, Павел Скороходов, Михаил Феоктистов, Лидия Данилова (II), Анна Варпаховская, Лариса Бравицкая, Жанна Александрова, Чарльз Кинг, Антон Вилькин

Описание: Драма по мотивам книги Роберта Питера Гейла и Томаса Хаузера.
Основанный на документальной книге, фильм рассказывает о международном сотрудничестве врачей, помогающих России в ликвидации последствий чернобыльской трагедии. Фигурируют исторические персонажи: Арман Хаммер, Михаил Горбачев.

Доп. информация: Производство: TURNER PICTURE INC. (США), СОЮЗКИНОСЕРВИС, ЛАДЬЯ

Сэмпл: http://www.sendspace.com/file/w0676j
Качество видео: SATRip
Формат видео: AVI

Видео: XviD MPEG-4 , 704x528 (1.33:1) , 25 fps , 2017 kbps avg
Аудио: AC3 , 48 kHz , 192.00 kbps avg , 2/0 (L,R) ch

MediaInfo
General
Complete name Chernobyl The Final Warning 1991.avi
Format : AVI
Format/Info : Audio Video Interleave
File size : 1.46 GiB
Duration : 1h 33mn
Overall bit rate : 2 219 Kbps
Writing library : VirtualDub build 35390/release

Video
ID : 0
Format : MPEG-4 Visual
Format profile : Advanced Simple@L5
Format settings, BVOP : 2
Format settings, QPel : No
Format settings, GMC : No warppoints
Format settings, Matrix : Default (H.263)
Codec ID : XVID
Codec ID/Hint : XviD
Duration : 1h 33mn
Bit rate : 2 017 Kbps
Width : 704 pixels
Height : 528 pixels
Display aspect ratio : 4:3
Frame rate : 25.000 fps
Color space : YUV
Chroma subsampling : 4:2:0
Bit depth : 8 bits
Scan type : Progressive
Compression mode : Lossy
Bits/(Pixel*Frame) : 0.217
Stream size : 1.32 GiB (91%)
Writing library : XviD 64

Audio
ID : 1
Format : AC-3
Format/Info : Audio Coding 3
Mode extension : CM (complete main)
Format settings, Endianness : Big
Codec ID : 2000
Duration : 1h 33mn
Bit rate mode : Constant
Bit rate : 192 Kbps
Channel(s) : 2 channels
Channel positions : Front: L R
Sampling rate : 48.0 KHz
Bit depth : 16 bits
Compression mode : Lossy
Stream size : 129 MiB (9%)
Alignment : Aligned on interleaves
Interleave, duration : 40 ms (1.00 video frame)
Interleave, preload duration : 512 ms


Скриншот c названием фильма
http://i56.fastpic.ru/thumb/2014/0426/75/86b8d00d7fc93c0ead9c1a9a10d33d75.jpeg


Скриншоты
http://i56.fastpic.ru/thumb/2014/0426/6a/2d7580408b823ab3398782589527e66a.jpeg http://i56.fastpic.ru/thumb/2014/0426/23/8c806634852917522fc9acab25ee4723.jpeg http://i56.fastpic.ru/thumb/2014/0426/bb/7b27066edc0ffe3a2152aa723e9026bb.jpeg http://i56.fastpic.ru/thumb/2014/0426/c3/9146f0787a372740b0cd5b46d61ba6c3.jpeg http://i56.fastpic.ru/thumb/2014/0426/16/b2ab37d02d880a3467e783ca54569d16.jpeg http://i56.fastpic.ru/thumb/2014/0426/d5/c682d4afa86a88db310f3aa14b84c4d5.jpeg http://i56.fastpic.ru/thumb/2014/0426/83/18f938600bdd6d0f6672b85779f72883.jpeg http://i56.fastpic.ru/thumb/2014/0426/e9/fd01477ed00ccff80d1aaadffa07b3e9.jpeg http://i56.fastpic.ru/thumb/2014/0426/e1/d33da2e7ead229a0cc45c57a57d4dfe1.jpeg http://i56.fastpic.ru/thumb/2014/0426/6c/801a0143bdf50eccef75851424072f6c.jpeg
Похожие файлы
Загрузка / Обновление
КатегорияФильмы AVI RSS лента
Просмотров255 раз (a)
Взят1 раз (a)
Файлы1
Размер1.46 GB (1,562,401,538 байт)
Добавлен
РаздалViKa  (Искать торренты)
Участники
Участники - Загрузка / Обновление
Просматривают Просматривают Загрузка...

-†- ¿? -†-
« Предыдущая - † Страница † - Следующая »

:: Список Комментариев
Нет комментариев.

 Нет комментариев
Вам запрещенно редактировать, создать или удалять комментарии.
shpv© 2007-2014
Страничка сформирована за 0.069 секунд.
Яндекс.Метрика Rambler's Top100