скачать торрент трекер Friends
 
 Главная  •  Торренты  •  Новые релизы  •  Форум  •   •  Персоны кино  •  Правила  •  ЧаВо

Язык интерфейса
Язык интерфейса:


Привет, Гость
[15] из [15]
Введите Логин:
Введите Пароль:
Регистрация
Восстановить Пароль

Линки
АнекдотыБанкоматВсе теги / меткиДополнительные услугиТехподдержка

Главное Меню
 Главная Торренты Релизы за сегодня Персоны кино Запросы / Предложения (3) Правила ЧаВо Проверка BB кодов Топ 10 Архив новостей Прошлые опросы Форматы файлов Группы Последние комментарии Техподдержка

:: Детали раздачи
Торрент раздача является мультитрекерной — учтите, количество раздающих не будет совпадать с количеством участников на сайте (скачивание на клиентской стороне зависит от настроек uTorrent клиент программы, настройки -> Включить DHT, Обмен пирами и Поиск лок-х пиров).
Если висит надпись, пиры по нулям - не бойтесь, возможность скачать повторно торрент раздачу - есть. Попробуйте, в случае отказа - прокоментируйте или нажмите на "Позвать скачавших".

Итальянская мафия / Lookin' Italian (Гай Мэгар / Guy Magar) [1994, США, криминал, драма, DVDRip] AVO (Юрий Сербин)

Скачать
Магнет
ПомощьКак скачать раздачу
Поделиться
Теги / Меткикриминал, драма
Постер
ОписаниеСтрана: США
Жанр: криминал, драма
Год выпуска: 1994
Продолжительность: 01:37:01

Перевод: Авторский (одноголосый закадровый) Юрий Сербин
Cубтитры: нет
Оригинальная аудиодорожка: нет

Режиссер: Гай Мэгар / Guy Magar

В ролях: Джей Аковоне, Мэтт ЛеБлан, Стефани Ричардс, Лу Роулз, Джон ЛаМотта, Ральф Манза

Описание: Винни, выходец из Италии, нашел свою вторую семью в Нью - Йоркском мафиозном клане. Отработав много лет наемным убийцей, он был вынужден уйти на покой. Но старые преступные связи не отпускают на свободу.
Когда руки в крови, а души убиенных тяжелым грузом лежат на сердце, смерть будет долго идти по твоему следу. Но бывший мафиози превратился в тихого забитого человека, который готов сделать всё что угодно, только бы не брать в руки оружие…

Доп. информация:
Видеоряд с Синемагеддона.
За звуковую дорожку с переводом Юрия Сербина с лицензионной VHS от компании "Пирамида" большое спасибо team_6strun.
За видеоряд, синхронизацию звуковой дороги и работу со звуком огромная благодарность ale_x2008.

Сэмпл: http://sendfile.su/972496

Качество видео: DVDRip
Формат видео: AVI

Видео: 720x540, 25.000 fps, MPEG-4 Visual, 1300 Kbps
Аудио: 48 KHz, AC3, 2 ch, 192 Kbps

MediaInfo
General
Complete name : C:\Users\Сергей\Downloads\Итальянская мафия.avi
Format : AVI
Format/Info : Audio Video Interleave
File size : 1.02 GiB
Duration : 1h 37mn
Overall bit rate : 1 502 Kbps
Writing application : VirtualDubMod 1.5.10.3 (build 2550/release)
Writing library : VirtualDubMod build 2550/release

Video
ID : 0
Format : MPEG-4 Visual
Format profile : Simple@L1
Format settings, BVOP : No
Format settings, QPel : No
Format settings, GMC : No warppoints
Format settings, Matrix : Default (H.263)
Codec ID : DX50
Codec ID/Hint : DivX 5
Duration : 1h 37mn
Bit rate : 1 300 Kbps
Width : 720 pixels
Height : 540 pixels
Display aspect ratio : 4:3
Frame rate : 25.000 fps
Color space : YUV
Chroma subsampling : 4:2:0
Bit depth : 8 bits
Scan type : Progressive
Compression mode : Lossy
Bits/(Pixel*Frame) : 0.134
Stream size : 902 MiB (87%)
Writing library : DigiArty AV Encoder Core

Audio
ID : 1
Format : AC-3
Format/Info : Audio Coding 3
Mode extension : CM (complete main)
Format settings, Endianness : Big
Codec ID : 2000
Duration : 1h 37mn
Bit rate mode : Constant
Bit rate : 192 Kbps
Channel(s) : 2 channels
Channel positions : Front: L R
Sampling rate : 48.0 KHz
Bit depth : 16 bits
Compression mode : Lossy
Stream size : 133 MiB (13%)
Alignment : Split accross interleaves
Interleave, duration : 40 ms (1.00 video frame)
Interleave, preload duration : 500 ms


Скриншот c названием фильма
http://i55.fastpic.ru/thumb/2014/0427/ca/3d2e6403cb6002a2cd62bb89fa3f98ca.jpeg


Скриншоты
[img]http://i55.fastpic.ru/thumb/2014/0427/0f/44fddb329e8f4ac3ab7c57653e93340f.jpeg[/img][img]http://i56.fastpic.ru/thumb/2014/0427/13/caf68ceeb6a4d7abd4e2c06def274413.jpeg[/img][img]http://i55.fastpic.ru/thumb/2014/0427/a9/46c7164bd7fd8536d9c806b77ce04ea9.jpeg" alt="http://i56.fastpic.ru/thumb/2014/0427/75/3bd99d2b83a3360c68a45aab6189b875.jpeg[/img][img]http://i55.fastpic.ru/thumb/2014/0427/0f/44fddb329e8f4ac3ab7c57653e93340f.jpeg[/img][img]http://i56.fastpic.ru/thumb/2014/0427/13/caf68ceeb6a4d7abd4e2c06def274413.jpeg[/img][img]http://i55.fastpic.ru/thumb/2014/0427/a9/46c7164bd7fd8536d9c806b77ce04ea9.jpeg" />
Похожие файлы
Загрузка / Обновление
КатегорияФильмы DVD RSS лента
Просмотров234 раз (a)
Взят2 раз (a)
Файлы1
Размер1.02 GB (1,092,636,672 байт)
Добавлен
РаздалViKa  (Искать торренты)
Участники
Участники - Загрузка / Обновление
Просматривают Просматривают Загрузка...

-†- ¿? -†-
« Предыдущая - † Страница † - Следующая »

:: Список Комментариев
Нет комментариев.

 Нет комментариев
Вам запрещенно редактировать, создать или удалять комментарии.
shpv© 2007-2014
Страничка сформирована за 0.694 секунд.
Яндекс.Метрика Rambler's Top100