скачать торрент трекер Friends
 
 Главная  •  Торренты  •  Новые релизы  •  Форум  •   •  Персоны кино  •  Правила  •  ЧаВо

Язык интерфейса
Язык интерфейса:


Привет, Гость
[15] из [15]
Введите Логин:
Введите Пароль:
Регистрация
Восстановить Пароль

Линки
АнекдотыБанкоматВсе теги / меткиДополнительные услугиТехподдержка

Главное Меню
 Главная Торренты Релизы за сегодня Персоны кино Запросы / Предложения (3) Правила ЧаВо Проверка BB кодов Топ 10 Архив новостей Прошлые опросы Форматы файлов Группы Последние комментарии Техподдержка

:: Детали раздачи
Торрент раздача является мультитрекерной — учтите, количество раздающих не будет совпадать с количеством участников на сайте (скачивание на клиентской стороне зависит от настроек uTorrent клиент программы, настройки -> Включить DHT, Обмен пирами и Поиск лок-х пиров).
Если висит надпись, пиры по нулям - не бойтесь, возможность скачать повторно торрент раздачу - есть. Попробуйте, в случае отказа - прокоментируйте или нажмите на "Позвать скачавших".

Джонни Мнемоник / Johnny Mnemonic (Роберт Лонго / Robert Longo) [1995, фантастика, антиутопия, BDRip] 2xMVO (Нева-1, ТВЦ)

Скачать
Магнет
ПомощьКак скачать раздачу
Поделиться
Теги / Меткифантастика, антиутопия
Постер
ОписаниеГод выпуска: 1995
Жанр: фантастика, антиутопия
Продолжительность: 01:36:40
Перевод 1: Профессиональный (Многоголосый, закадровый) Нева-1
Перевод 2: Профессиональный (Многоголосый, закадровый) ТВЦ
Cубтитры: нет

Режиссер: Роберт Лонго / Robert Longo

В ролях: Киану Ривз, Дина Мейер, Айс-Ти, Такеши Китано, Деннис Акаяма, Дольф Лундгрен, Генри Роллинз, Барбара Зукова, Удо Кир, Трейси Туид

О фильме:
В насквозь кибернетизированном будущем самый ценный товар — информация, доставляемая курьерами в самом надежном месте — в их собственном мозгу. Для того, чтобы преуспеть в этом бизнесе, Джонни «стер» воспоминания детства и расширил память сверхсовременных компьютерных приспособлений.
Но и этого оказалось мало для информации, которую он взялся доставить. Если ее вовремя не сгрузить, то Джонни погибнет. Ставки велики, и информацию из головы (можно и с головой, но без Джонни) желает получить вездесущая японская мафия, подключающая к столь тонкому делу проповедника…

Доп. информация:
BDRip отсюда (СЭМПЛ)
За оцифровку перевода студии "Нева-1" с VHS спасибо Fikaloid. Роли озвучивали Олег Морысин, Александра Кожевникова, Татьяна Лебедева, Вадим Гущин, Гелий Сысоев, Алексей Зубарев.
За перевод канала ТВЦ спасибо Syxar. Мужские роли озвучивали Владимир Герасимов и Вячеслав Баранов.
http://www.kinopoisk.ru/rating/3800.gif

Отчет MediaInfo


Цитата:
General
Complete name : G:\Temp\Johnny.Mnemonic.1995.BDRip.2xMVO.avi
Format : AVI
Format/Info : Audio Video Interleave
File size : 1.46 GiB
Duration : 1h 36mn
Overall bit rate : 2 157 Kbps
Movie name : Johnny Mnemonic (1995) BDRip
Director : Vиkt0R
Genre : Action/Sci-Fi
Writing application : VirtualDubMod 1.5.10.2 (build 2540/release)
Writing library : VirtualDubMod build 2540/release
Copyright : hqclub
Comment : R.G. HQCLUB

Video
ID : 0
Format : MPEG-4 Visual
Format profile : Advanced Simple@L5
Format settings, BVOP : Yes
Format settings, QPel : No
Format settings, GMC : No warppoints
Format settings, Matrix : Custom
Codec ID : XVID
Codec ID/Hint : XviD
Duration : 1h 36mn
Bit rate : 1 759 Kbps
Width : 720 pixels
Height : 400 pixels
Display aspect ratio : 16:9
Frame rate : 23.976 fps
Color space : YUV
Chroma subsampling : 4:2:0
Bit depth : 8 bits
Scan type : Progressive
Compression mode : Lossy
Bits/(Pixel*Frame) : 0.255
Stream size : 1.19 GiB (82%)
Writing library : XviD 57

Audio #1
ID : 1
Format : AC-3
Format/Info : Audio Coding 3
Mode extension : CM (complete main)
Format settings, Endianness : Big
Codec ID : 2000
Duration : 1h 36mn
Bit rate mode : Constant
Bit rate : 192 Kbps
Channel count : 2 channels
Channel positions : Front: L R
Sampling rate : 48.0 KHz
Bit depth : 16 bits
Compression mode : Lossy
Stream size : 133 MiB (9%)
Alignment : Split accross interleaves
Interleave, duration : 42 ms (1.00 video frame)
Interleave, preload duration : 500 ms

Audio #2
ID : 2
Format : AC-3
Format/Info : Audio Coding 3
Mode extension : CM (complete main)
Format settings, Endianness : Big
Codec ID : 2000
Duration : 1h 36mn
Bit rate mode : Constant
Bit rate : 192 Kbps
Channel count : 2 channels
Channel positions : Front: L R
Sampling rate : 48.0 KHz
Bit depth : 16 bits
Compression mode : Lossy
Stream size : 133 MiB (9%)
Alignment : Split accross interleaves
Interleave, duration : 42 ms (1.00 video frame)
Interleave, preload duration : 500 ms



Качество видео: BDRip
Формат видео: AVI
Видео: 720x400, 23.976 fps, XviD ~1759 kbps avg, 0.255 bit/pixel
Аудио:
1 - 48 kHz, AC3 Dolby Digital, 2/0 (L,R) ch, ~192 kbps [Нева-1] VHSRip
2 - 48 kHz, AC3 Dolby Digital, 2/0 (L,R) ch, ~192 kbps [ТВЦ] VHSRip

скриншоты
http://thumbnails109.imagebam.com/32294/d04fd2322935585.jpg http://thumbnails112.imagebam.com/32294/85aa71322935589.jpg
http://thumbnails110.imagebam.com/32294/11715e322935596.jpg http://thumbnails110.imagebam.com/32294/da12f2322935605.jpg
Скриншоты
Похожие файлы
Загрузка / Обновление
КатегорияФильмы AVI RSS лента
Просмотров232 раз (a)
Взят6 раз (a)
Файлы1
Размер1.46 GB (1,564,233,728 байт)
Добавлен
РаздалViKa  (Искать торренты)
Участники
Участники - Загрузка / Обновление
Просматривают Просматривают Загрузка...

-†- ¿? -†-
« Предыдущая - † Страница † - Следующая »

:: Список Комментариев
Нет комментариев.

 Нет комментариев
Вам запрещенно редактировать, создать или удалять комментарии.
shpv© 2007-2014
Страничка сформирована за 0.158 секунд.
Яндекс.Метрика Rambler's Top100