скачать торрент трекер Friends
 
 Главная  •  Торренты  •  Новые релизы  •  Форум  •   •  Персоны кино  •  Правила  •  ЧаВо

Язык интерфейса
Язык интерфейса:


Привет, Гость
[15] из [15]
Введите Логин:
Введите Пароль:
Регистрация
Восстановить Пароль

Линки
АнекдотыБанкоматВсе теги / меткиДополнительные услугиТехподдержка

Главное Меню
 Главная Торренты Релизы за сегодня Персоны кино Запросы / Предложения (3) Правила ЧаВо Проверка BB кодов Топ 10 Архив новостей Прошлые опросы Форматы файлов Группы Последние комментарии Техподдержка

:: Детали раздачи

Корона и дракон / The Crown and the Dragon (Энн К. Блэк / Anne K. Black) [2013, США, фэнтези, приключения, BDRip] MVO

Скачать
Магнет
ПомощьКак скачать раздачу
Поделиться
Теги / Меткифэнтези, приключения
Постер
ОписаниеСтрана: США
Жанр: фэнтези, приключения
Год выпуска: 2013
Продолжительность: 01:31:36

Перевод: Профессиональный (многоголосый закадровый)
Cубтитры: нет
Режиссер: Энн К. Блэк / Anne K. Black

В ролях: Оуэн Бартон, Эми Де Брюн, Энгус Браун, Клер Кордингли, Стефан Дюбуа, Кайнен Гриффин, Дэвид Хейдн, Ава Хант, Грант Хатчинсон, Christophe Lombardi...

Описание: Через истерзанную войной страну, страдающую от жестокого дракона, молодая дворянка сопровождает свою тетю, чтобы доставить древнюю реликвию на секретную коронацию законного короля.

Сэмпл: http://multi-up.com/969615

Качество видео: BDRip / BDRemux 1080p + DVD5 R5 (Раздача от: New-Team)
Формат видео: AVI

Видео: 720x400 (16:9), 23.976 fps, XviD, ~1820 Кбит/сек avg, 0.264 bit/pix
Аудио: 48 kHz, Dolby AC3, 6 ch, 448 kbps

MediaInfo
Общее
Полное имя : Korona.i.drakon.2013.P.BDRip_[New-Team]_by_avproh.avi
Формат : AVI
Формат/Информация : Audio Video Interleave
Размер файла : 1,46 Гбайт
Продолжительность : 1 ч. 31 м.
Общий поток : 2277 Кбит/сек
Программа кодирования : VirtualDubModRus 1.5.10.2 (build 2542/release)
Библиотека кодирования : VirtualDubMod build 2542/release

Видео
Идентификатор : 0
Формат : MPEG-4 Visual
Профиль формата : Advanced Simple@L5
Параметр BVOP формата : 1
Параметр QPel формата : Нет
Параметр GMC формата : Без точки перехода
Параметр матрицы формата : Выборочная
Идентификатор кодека : XVID
Идентификатор кодека/Подсказка : XviD
Продолжительность : 1 ч. 31 м.
Битрейт : 1820 Кбит/сек
Ширина : 720 пикселей
Высота : 400 пикселей
Соотношение сторон : 16:9
Частота кадров : 23,976 кадра/сек
Цветовое пространство : YUV
Субдискретизация насыщенности : 4:2:0
Битовая глубина : 8 бит
Тип развёртки : Прогрессивная
Метод сжатия : С потерями
Бит/(Пиксели*Кадры) : 0.264
Размер потока : 1,16 Гбайт (80%)
Библиотека кодирования : XviD 73

Аудио
Идентификатор : 1
Формат : AC-3
Формат/Информация : Audio Coding 3
Расширение режима : CM (complete main)
Параметр Endianness формата : Big
Идентификатор кодека : 2000
Продолжительность : 1 ч. 31 м.
Вид битрейта : Постоянный
Битрейт : 448 Кбит/сек
Каналы : 6 каналов
Расположение каналов : Front: L C R, Side: L R, LFE
Частота : 48,0 КГц
Битовая глубина : 16 бит
Метод сжатия : С потерями
Размер потока : 294 Мбайт (20%)
Выравнивание : Разделение по промежуткам
Продолжительность промежутка : 42 мс. (1,00 видеокадр)
Время предзагрузки промежутка : 500 мс.


Скриншот c названием фильма
http://i55.fastpic.ru/thumb/2014/0427/29/dead66c3cf4727987adfb6341d9c0929.jpeg


Скриншоты
[img]http://i55.fastpic.ru/thumb/2014/0427/7b/0cd69672ec740de86130dc9acd13a27b.jpeg[/img][img]http://i56.fastpic.ru/thumb/2014/0427/93/109e75130b21a28f8e7ba34b3c7dea93.jpeg" alt="http://i56.fastpic.ru/thumb/2014/0427/f2/c35e110136a934c93b53996b823afff2.jpeg[/img][img]http://i55.fastpic.ru/thumb/2014/0427/7b/0cd69672ec740de86130dc9acd13a27b.jpeg[/img][img]http://i56.fastpic.ru/thumb/2014/0427/93/109e75130b21a28f8e7ba34b3c7dea93.jpeg" />
Похожие файлы
Загрузка / Обновление
КатегорияФильмы AVI RSS лента
Просмотров240 раз (a)
Взят4 раз (a)
Файлы1
Размер1.46 GB (1,564,227,584 байт)
Добавлен
РаздалViKa  (Искать торренты)
Участники
Участники - Загрузка / Обновление
Просматривают Просматривают Загрузка...

-†- ¿? -†-
« Предыдущая - † Страница † - Следующая »

:: Список Комментариев
Нет комментариев.

 Нет комментариев
Вам запрещенно редактировать, создать или удалять комментарии.
shpv© 2007-2014
Страничка сформирована за 0.102 секунд.
Яндекс.Метрика Rambler's Top100