скачать торрент трекер Friends
 
 Главная  •  Торренты  •  Новые релизы  •  Форум  •   •  Персоны кино  •  Правила  •  ЧаВо

Язык интерфейса
Язык интерфейса:


Привет, Гость
[15] из [15]
Введите Логин:
Введите Пароль:
Регистрация
Восстановить Пароль

Линки
АнекдотыБанкоматВсе теги / меткиДополнительные услугиТехподдержка

Главное Меню
 Главная Торренты Релизы за сегодня Персоны кино Запросы / Предложения (3) Правила ЧаВо Проверка BB кодов Топ 10 Архив новостей Прошлые опросы Форматы файлов Группы Последние комментарии Техподдержка

:: Детали раздачи
Торрент раздача является мультитрекерной — учтите, количество раздающих не будет совпадать с количеством участников на сайте (скачивание на клиентской стороне зависит от настроек uTorrent клиент программы, настройки -> Включить DHT, Обмен пирами и Поиск лок-х пиров).
Если висит надпись, пиры по нулям - не бойтесь, возможность скачать повторно торрент раздачу - есть. Попробуйте, в случае отказа - прокоментируйте или нажмите на "Позвать скачавших".

Долгий Поцелуй На Ночь / The Long Kiss Goodnight (Ренни Харлин / Renny Harlin) [1996, США, боевик, триллер, драма, HDRip] MVO (НТВ+) + VO (Неизвестный)

Скачать
Магнет
ПомощьКак скачать раздачу
Поделиться
Теги / Меткибоевик, триллер, драма
Постер
ОписаниеСтрана: США
Жанр: боевик, триллер, драма
Год выпуска: 1996
Продолжительность: 02:00:33

Перевод: Профессиональный (многоголосый закадровый) НТВ+
Перевод 2: Одноголосый закадровый Неизвестный
Cубтитры: нет
Режиссер: Ренни Харлин / Renny Harlin

В ролях: Джина Дэвис, Сэмюэл Л. Джексон, Ивонн Зима, Крэйг Бирко, Брайан Кокс, Том Амандес, Патрик Мэлахайд, Дэвид Морс, Джозеф МакКенна, Мелина Канакаридис

Описание: 8 лет назад школьная учительница Саманта Кейн перенесла полную потерю памяти. Она живет с 8-летней дочкой счастливой семейной жизнью и не подозревает о своем кровавом прошлом, ведь когда-то эта красивая женщина была агентом Чарли Бэлтимор, выполнявшим секретные заказы ЦРУ.

Шокированная неожиданным возвращением некоторых навыков и психологической подготовки профессионального киллера, Саманта пытается разобраться в своем прошлом. Детектив Митч Хенесси, начавший с расследования жизни простой учительницы, оказывается втянутым вместе с Самантой в секретную операцию ЦРУ.

Благодарности:

Scarabey - за исходник видео.
team_6strun - за запись перевода НТВ+ с телеканала ТВ3 и оцифровку Неизвестного.
JUSTKANT - за работу со звуком.
В переводе НТВ+ мужские роли озвучивали Александр Котов и Михаил Тихонов, женские (частично) - Ирина Савина.

Сэмпл: http://www.sendspace.com/file/xcy9as

Качество видео: HDRip
Формат видео: AVI

Видео: XviD, 720x304 (2,35:1), 23.976 fps, 1275 kbps avg
Аудио:
1 - 48 khz, AC3 Dolby Digital, 2/0 (L,R) ch, ~192 kbps [НТВ+] SATRip
2 - 48 khz, AC3 Dolby Digital, 2/0 (L,R) ch, ~192 kbps [Неизвестный] VHSRip

MediaInfo
Общее
Полное имя : E:\Альберт\Downloads\Долгий Поцелуй На Ночь.avi
Формат : AVI
Формат/Информация : Audio Video Interleave
Размер файла : 1,41 Гбайт
Продолжительность : 2 ч. 0 м.
Общий поток : 1673 Кбит/сек
Программа кодирования : VirtualDubMod 1.5.10.2 (build 2540/release)
Библиотека кодирования : VirtualDubMod build 2540/release

Видео
Идентификатор : 0
Формат : MPEG-4 Visual
Профиль формата : Advanced Simple@L5
Параметр BVOP формата : 1
Параметр QPel формата : Нет
Параметр GMC формата : Без точки перехода
Параметр матрицы формата : Выборочная
Идентификатор кодека : XVID
Идентификатор кодека/Подсказка : XviD
Продолжительность : 2 ч. 0 м.
Битрейт : 1275 Кбит/сек
Ширина : 720 пикселей
Высота : 304 пикселя
Соотношение сторон : 2,35:1
Частота кадров : 23,976 кадра/сек
Цветовое пространство : YUV
Субдискретизация насыщенности : 4:2:0
Битовая глубина : 8 бит
Тип развёртки : Прогрессивная
Метод сжатия : С потерями
Бит/(Пиксели*Кадры) : 0.243
Размер потока : 1,07 Гбайт (76%)
Библиотека кодирования : XviD 1.2.1 (UTC 2008-12-04)

Аудио #1
Идентификатор : 1
Формат : AC-3
Формат/Информация : Audio Coding 3
Расширение режима : CM (complete main)
Параметр Endianness формата : Big
Идентификатор кодека : 2000
Продолжительность : 2 ч. 0 м.
Вид битрейта : Постоянный
Битрейт : 192 Кбит/сек
Каналы : 2 канала
Расположение каналов : Front: L R
Частота : 48,0 КГц
Битовая глубина : 16 бит
Метод сжатия : С потерями
Размер потока : 166 Мбайт (11%)
Выравнивание : Разделение по промежуткам
Продолжительность промежутка : 42 мс. (1,00 видеокадр)
Время предзагрузки промежутка : 500 мс.

Аудио #2
Идентификатор : 2
Формат : AC-3
Формат/Информация : Audio Coding 3
Расширение режима : CM (complete main)
Параметр Endianness формата : Big
Идентификатор кодека : 2000
Продолжительность : 2 ч. 0 м.
Вид битрейта : Постоянный
Битрейт : 192 Кбит/сек
Каналы : 2 канала
Расположение каналов : Front: L R
Частота : 48,0 КГц
Битовая глубина : 16 бит
Метод сжатия : С потерями
Размер потока : 166 Мбайт (11%)
Выравнивание : Разделение по промежуткам
Продолжительность промежутка : 42 мс. (1,00 видеокадр)
Время предзагрузки промежутка : 500 мс.


Скриншот c названием фильма
http://i55.fastpic.ru/thumb/2014/0427/73/40b8e89243d418a0ad79d5d9fd5dd873.jpeg


Скриншоты
http://i56.fastpic.ru/thumb/2014/0427/95/113dfe64b0874cf83847ff25ce127b95.jpeg http://i56.fastpic.ru/thumb/2014/0427/d4/2e46ddcc80c76c4cc48665f9c9e674d4.jpeg http://i56.fastpic.ru/thumb/2014/0427/29/68d0321a716cb0f908dffdbd01eddc29.jpeg
Похожие файлы
Загрузка / Обновление
КатегорияФильмы AVI RSS лента
Просмотров213 раз (a)
Взят4 раз (a)
Файлы1
Размер1.41 GB (1,512,814,592 байт)
Добавлен
РаздалViKa  (Искать торренты)
Участники
Участники - Загрузка / Обновление
Просматривают Просматривают Загрузка...

-†- ¿? -†-
« Предыдущая - † Страница † - Следующая »

:: Список Комментариев
Нет комментариев.

 Нет комментариев
Вам запрещенно редактировать, создать или удалять комментарии.
shpv© 2007-2014
Страничка сформирована за 0.404 секунд.
Яндекс.Метрика Rambler's Top100