скачать торрент трекер Friends
 
 Главная  •  Торренты  •  Новые релизы  •  Форум  •   •  Персоны кино  •  Правила  •  ЧаВо

Язык интерфейса
Язык интерфейса:


Привет, Гость
[15] из [15]
Введите Логин:
Введите Пароль:
Регистрация
Восстановить Пароль

Линки
АнекдотыБанкоматВсе теги / меткиДополнительные услугиТехподдержка

Главное Меню
 Главная Торренты Релизы за сегодня Персоны кино Запросы / Предложения (3) Правила ЧаВо Проверка BB кодов Топ 10 Архив новостей Прошлые опросы Форматы файлов Группы Последние комментарии Техподдержка

:: Детали раздачи
Торрент раздача является мультитрекерной — учтите, количество раздающих не будет совпадать с количеством участников на сайте (скачивание на клиентской стороне зависит от настроек uTorrent клиент программы, настройки -> Включить DHT, Обмен пирами и Поиск лок-х пиров).
Если висит надпись, пиры по нулям - не бойтесь, возможность скачать повторно торрент раздачу - есть. Попробуйте, в случае отказа - прокоментируйте или нажмите на "Позвать скачавших".

Под водой! / Underwater! (Джон Стёрджес / John Sturges) [1955, США, приключения, DVDRip] (Антон Каптелов) + Sub Rus + Original Eng

Скачать
Магнет
ПомощьКак скачать раздачу
Поделиться
Теги / Меткиприключения
Постер
ОписаниеСтрана: США
Жанр: приключения
Год выпуска: 1955
Продолжительность: 01:39:02

Перевод: Субтитры Антон Каптелов
Cубтитры: русские
Оригинальная аудиодорожка: английский

Режиссер: Джон Стёрджес / John Sturges

В ролях: Джейн Расселл, Гилберт Роланд, Ричард Иган, Лори Нельсон, Роберт Кит, Джозеф Каллейа, Юджин Иглесиас, Рик Роман, Дамасо Перез Прадо, Дэн Бернадуччи

Описание: Два друга-дайвера, Ричард и Доминик, осуществляя погружение в Карибском море, обнаруживают на дне испанское судно 17-го века. Вернувшись в город они нанимают яхту и, прихватив с собой подруг Терезу (Джейн Расселл) и Глорию, отправляются в опасное путешествие, на поиски сокровищ затонувшего галеона.

Сэмпл: http://multi-up.com/969654

Качество видео: DVDRip
Формат видео: AVI

Видео: 704x512 (1.38:1), 25 fps, XviD build 47 ~1769 kbps avg, 0.20 bit/pixel
Аудио: 48 kHz, MPEG Layer 3, 2 ch, ~192.00 kbps avg
Формат субтитров: softsub (SRT)

MediaInfo
Format : AVI
Format/Info : Audio Video Interleave
File size : 1.36 GiB
Duration : 1h 39mn
Overall bit rate : 1 971 Kbps

Video
ID : 0
Format : MPEG-4 Visual
Format profile : Advanced Simple@L5
Format settings, BVOP : 1
Format settings, QPel : No
Format settings, GMC : No warppoints
Format settings, Matrix : Default (MPEG)
Codec ID : XVID
Codec ID/Hint : XviD
Duration : 1h 39mn
Bit rate : 1 770 Kbps
Width : 704 pixels
Height : 512 pixels
Display aspect ratio : 1.375
Frame rate : 25.000 fps
Color space : YUV
Chroma subsampling : 4:2:0
Bit depth : 8 bits
Scan type : Progressive
Compression mode : Lossy
Bits/(Pixel*Frame) : 0.196
Stream size : 1.22 GiB (90%)
Writing library : XviD 1.2.0.dev47 (UTC 2006-11-01)

Audio
ID : 1
Format : MPEG Audio
Format version : Version 1
Format profile : Layer 3
Mode : Joint stereo
Mode extension : MS Stereo
Codec ID : 55
Codec ID/Hint : MP3
Duration : 1h 39mn
Bit rate mode : Constant
Bit rate : 192 Kbps
Channel(s) : 2 channels
Sampling rate : 48.0 KHz
Compression mode : Lossy
Stream size : 136 MiB (10%)
Alignment : Aligned on interleaves
Interleave, duration : 40 ms (1.00 video frame)
Interleave, preload duration : 504 ms
Writing library : LAME3.97
Encoding settings : -m j -V 4 -q 2 -lowpass 18.6 -b 192


Скриншот c названием фильма
http://i55.fastpic.ru/thumb/2014/0426/aa/3fbf664cdd44315ea9b42ae4f7dc47aa.jpeg


Скриншоты
http://i56.fastpic.ru/thumb/2014/0426/9f/e3fb2279c686cddd2cf6d7ea8df7289f.jpeg http://i56.fastpic.ru/thumb/2014/0426/00/cf928b902457f7f751a0f5b77e4b6b00.jpeg http://i56.fastpic.ru/thumb/2014/0426/05/0c88ca3eb92c063fa9ac1f4c54d06605.jpeg http://i56.fastpic.ru/thumb/2014/0426/f4/0f5268526603bd37d75812c199394af4.jpeg
http://i56.fastpic.ru/thumb/2014/0426/20/97545d68da52d69e3ec39ac31f2a1c20.jpeg http://i56.fastpic.ru/thumb/2014/0426/84/c0a3ab43702308162b671b885c585184.jpeg http://i56.fastpic.ru/thumb/2014/0426/e3/f9e60e21c8d2d1bdf7394fa7791e98e3.jpeg http://i56.fastpic.ru/thumb/2014/0426/12/c03242da7a81032d3f9e8ecb13235f12.jpeg
http://i56.fastpic.ru/thumb/2014/0426/d6/70111a9be65b9973b50d92aff99831d6.jpeg http://i56.fastpic.ru/thumb/2014/0426/19/2ad0ed0fb5ac5f09f3f799cf0a6c4619.jpeg http://i56.fastpic.ru/thumb/2014/0426/83/af35bad230b9f38c8996889148d4b483.jpeg http://i56.fastpic.ru/thumb/2014/0426/1e/cd5acc04bb3578a9099d320f75c8d51e.jpeg
http://i56.fastpic.ru/thumb/2014/0426/3c/c158de4b5a19e7f4072f52ba16383d3c.jpeg http://i56.fastpic.ru/thumb/2014/0426/47/6a77fefd1c35a4098bb013916d794c47.jpeg http://i56.fastpic.ru/thumb/2014/0426/ae/e57c7a124f04c7be538ad7bcaaf670ae.jpeg http://i56.fastpic.ru/thumb/2014/0426/f7/bebd1ccbe8d85ac4850791acf57d62f7.jpeg


Пример субтитров
91
00:09:31,720 --> 00:09:34,319
Я волновался о том,
как сообщить обо всем Терезе.

92
00:09:37,040 --> 00:09:38,793
Это, пожалуй, будет трудней всего.

93
00:09:39,737 --> 00:09:41,807
Как же рассказать все Терезе?

94
00:09:43,320 --> 00:09:45,038
Пожалуйста, оставайтесь
на пирсе!

95
00:09:45,280 --> 00:09:47,811
- Не хочу я оставаться на пирсе!
- Джонни!

96
00:09:48,200 --> 00:09:50,633
Как же я рада тебя видеть!

97
00:09:53,480 --> 00:09:55,755
Почему ты не предупредил, что придешь?
Я сейчас совершенно растрепана!

98
00:09:56,000 --> 00:09:57,274
Ты и так прекрасна!

99
00:10:01,200 --> 00:10:03,156
Целых пять дней!

100
00:10:06,920 --> 00:10:08,270
Доминик!

101
00:10:09,080 --> 00:10:12,197
Я должна оторвать тебе уши,
за то, что не появлялся здесь так долго!

102
00:10:12,440 --> 00:10:14,398
Слишком долго, моя красотулька!

103
00:10:14,880 --> 00:10:17,075
Ах ты, мой веселый дьявол!

104
00:10:17,800 --> 00:10:19,396
Залезай, я хоть посмотрю на тебя!

105
00:10:23,040 --> 00:10:24,837
Отлично, да? Хорошо!

106
00:10:25,711 --> 00:10:27,834
- У тебя какие-то проблемы с лицом?
- Никаких проблем!

107
00:10:28,480 --> 00:10:30,084
И все же, что-то есть...

108
00:10:31,120 --> 00:10:32,198
Ты влюблен!

109
00:10:32,280 --> 00:10:34,999
Неужели какая-то чикита наконец-то
заполучила тебя, Доминик?!

110
00:10:35,720 --> 00:10:37,036
Клянусь - нет такой!

111
00:10:37,187 --> 00:10:39,101
Давайте же войдем!
Я хочу выпить!

112
00:10:40,211 --> 00:10:42,580
Как забавно! Я в таких делах
раньше не ошибалась.

Огромное спасибо [b]larisa547[/b] за исходник и Антону Каптелову за перевод!
Похожие файлы
Загрузка / Обновление
КатегорияФильмы DVD RSS лента
Просмотров387 раз (a)
Взят1 раз (a)
Файлы2
Размер1.36 GB (1,464,390,532 байт)
Добавлен
РаздалViKa  (Искать торренты)
Участники
Участники - Загрузка / Обновление
Просматривают Просматривают Загрузка...

-†- ¿? -†-
« Предыдущая - † Страница † - Следующая »

:: Список Комментариев
Нет комментариев.

 Нет комментариев
Вам запрещенно редактировать, создать или удалять комментарии.
shpv© 2007-2014
Страничка сформирована за 1.281 секунд.
Яндекс.Метрика Rambler's Top100