скачать торрент трекер Friends
 
 Главная  •  Торренты  •  Новые релизы  •  Форум  •   •  Персоны кино  •  Правила  •  ЧаВо

Язык интерфейса
Язык интерфейса:


Привет, Гость
[15] из [15]
Введите Логин:
Введите Пароль:
Регистрация
Восстановить Пароль

Линки
АнекдотыБанкоматВсе теги / меткиДополнительные услугиТехподдержка

Главное Меню
 Главная Торренты Релизы за сегодня Персоны кино Запросы / Предложения (3) Правила ЧаВо Проверка BB кодов Топ 10 Архив новостей Прошлые опросы Форматы файлов Группы Последние комментарии Техподдержка

:: Детали раздачи
Торрент раздача является мультитрекерной — учтите, количество раздающих не будет совпадать с количеством участников на сайте (скачивание на клиентской стороне зависит от настроек uTorrent клиент программы, настройки -> Включить DHT, Обмен пирами и Поиск лок-х пиров).
Если висит надпись, пиры по нулям - не бойтесь, возможность скачать повторно торрент раздачу - есть. Попробуйте, в случае отказа - прокоментируйте или нажмите на "Позвать скачавших".

Перекрестие / Crosshairs (Ник Ленц / Nik Lentz) [2013, США, боевик, триллер, драма, HDRip] DVO (НТВ+)

Скачать
Магнет
ПомощьКак скачать раздачу
Поделиться
Теги / Меткибоевик, триллер, драма
Постер
ОписаниеСтрана: США
Жанр: боевик, триллер, драма
Год выпуска: 2013
Продолжительность: 01:59:54

Перевод: Профессиональный (двухголосый закадровый) НТВ+
Cубтитры: нет
Оригинальная аудиодорожка: нет

Режиссер: Ник Ленц / Nik Lentz

В ролях: Роберт Сиэй, Марк Ролстон, Том Сайзмор, Джефф Парис, Коди Китчен, Люк Эдвардс, Мишель Ван Дер Уотер, Сильви Кас, Зитто Казанн, Бад Уотсон, Кэролин Стотс, Кристина Кулиш, Ребекка Беренс, Дрю Брилакис, Леви Филер, Грант Мэтис, Остин Мелроз

Описание: Джек Верлен — талантливый убийца, и он не видит ничего зазорного в своей профессии. Во время выполнения заказа на ликвидацию продюсера порнофильмов, изуродовавшего одну иммигрантку, он получает выгодное предложение от высокопоставленного банкира, от которого совсем не просто отказаться. А на следующий день на пороге его дома неожиданно появляется его бывшая, которая обращается к бывшему бойфренду с необычной просьбой…

Доп. информация:
http://rating.kinopoisk.ru/496928.gif http://imdb.snick.ru/ratefor/02/tt1587436.png http://i27.fastpic.ru/big/2011/0918/39/5294519dbf50a7c90dc253c3ae575039.png

Качество видео: HDRip
Формат видео: AVI

Видео: Xvid 720x304 23.976fps 1 542 Kbps
Аудио: Dolby AC3 48000Hz stereo 192kbps

MediaInfo
General
Complete name : D:\Perekrestie.2013.HDRip.avi
Format : AVI
Format/Info : Audio Video Interleave
File size : 1.46 GiB
Duration : 1h 59mn
Overall bit rate : 1 743 Kbps
Writing application : VirtualDubMod 1.5.10.2 (build 2540/release)
Writing library : VirtualDubMod build 2540/release

Video
ID : 0
Format : MPEG-4 Visual
Format profile : Advanced Simple@L5
Format settings, BVOP : Yes
Format settings, QPel : No
Format settings, GMC : No warppoints
Format settings, Matrix : Default (MPEG)
Codec ID : XVID
Codec ID/Hint : XviD
Duration : 1h 59mn
Bit rate : 1 542 Kbps
Width : 720 pixels
Height : 304 pixels
Display aspect ratio : 2.35:1
Frame rate : 23.976 fps
Color space : YUV
Chroma subsampling : 4:2:0
Bit depth : 8 bits
Scan type : Progressive
Compression mode : Lossy
Bits/(Pixel*Frame) : 0.294
Stream size : 1.29 GiB (88%)
Writing library : XviD 1.2.1 (UTC 2008-12-04)

Audio
ID : 1
Format : AC-3
Format/Info : Audio Coding 3
Mode extension : CM (complete main)
Format settings, Endianness : Big
Codec ID : 2000
Duration : 1h 59mn
Bit rate mode : Constant
Bit rate : 192 Kbps
Channel count : 2 channels
Channel positions : Front: L R
Sampling rate : 48.0 KHz
Bit depth : 16 bits
Compression mode : Lossy
Stream size : 165 MiB (11%)
Alignment : Split accross interleaves
Interleave, duration : 42 ms (1.00 video frame)
Interleave, preload duration : 500 ms


Скриншот c названием фильма
http://i56.fastpic.ru/thumb/2014/0427/a0/68cdd283fd1f9da44c93916e1be889a0.jpeg


Скриншоты
[img]http://i56.fastpic.ru/thumb/2014/0427/09/fdb4759685a147d87b37ae33f0234f09.jpeg[/img][img]http://i56.fastpic.ru/thumb/2014/0427/18/91d4d50c464283e518508a07b1e06418.jpeg" alt="http://i56.fastpic.ru/thumb/2014/0427/2d/ad09395bfcb459adef37c36f91d8102d.jpeg[/img][img]http://i56.fastpic.ru/thumb/2014/0427/09/fdb4759685a147d87b37ae33f0234f09.jpeg[/img][img]http://i56.fastpic.ru/thumb/2014/0427/18/91d4d50c464283e518508a07b1e06418.jpeg" />
Похожие файлы
Загрузка / Обновление
КатегорияФильмы AVI RSS лента
Просмотров234 раз (a)
Взят3 раз (a)
Файлы1
Размер1.46 GB (1,567,565,824 байт)
Добавлен
РаздалViKa  (Искать торренты)
Участники
Участники - Загрузка / Обновление
Просматривают Просматривают Загрузка...

-†- ¿? -†-
« Предыдущая - † Страница † - Следующая »

:: Список Комментариев
Нет комментариев.

 Нет комментариев
Вам запрещенно редактировать, создать или удалять комментарии.
shpv© 2007-2014
Страничка сформирована за 0.203 секунд.
Яндекс.Метрика Rambler's Top100