скачать торрент трекер Friends
 
 Главная  •  Торренты  •  Новые релизы  •  Форум  •   •  Персоны кино  •  Правила  •  ЧаВо

Язык интерфейса
Язык интерфейса:


Привет, Гость
[15] из [15]
Введите Логин:
Введите Пароль:
Регистрация
Восстановить Пароль

Линки
АнекдотыБанкоматВсе теги / меткиДополнительные услугиТехподдержка

Главное Меню
 Главная Торренты Релизы за сегодня Персоны кино Запросы / Предложения (3) Правила ЧаВо Проверка BB кодов Топ 10 Архив новостей Прошлые опросы Форматы файлов Группы Последние комментарии Техподдержка

:: Детали раздачи
Торрент раздача является мультитрекерной — учтите, количество раздающих не будет совпадать с количеством участников на сайте (скачивание на клиентской стороне зависит от настроек uTorrent клиент программы, настройки -> Включить DHT, Обмен пирами и Поиск лок-х пиров).
Если висит надпись, пиры по нулям - не бойтесь, возможность скачать повторно торрент раздачу - есть. Попробуйте, в случае отказа - прокоментируйте или нажмите на "Позвать скачавших".

Враг / Enemy (Дени Вильнёв / Denis Villeneuve) [2013, Канада, Испания, триллер, детектив, WEB-DLRip] VO

Скачать
Магнет
ПомощьКак скачать раздачу
Поделиться
Теги / Меткитриллер, детектив
Постер
ОписаниеСтрана: Канада, Испания
Жанр: триллер, детектив
Год выпуска: 2013
Продолжительность: 01:30:50

Перевод: Любительский (одноголосный закадровый) [Xixidok]
Cубтитры: нет
Оригинальная аудиодорожка: нет

Режиссер: Дени Вильнёв / Denis Villeneuve

В ролях: Джейк Джилленхол, Мелани Лоран, Сара Гадон, Изабелла Росселлини, Джошуа Пиис, Тим Пост, Кедар Браун, Дэррил Динн, Миша Хайстэд, Меган Манн ...

Описание: Чтобы хоть как-то развеять свою депрессию, разведенный учитель истории Тертулиано Максимо Афонсо берет в прокате видеокассету с комедией «Упорный охотник подстрелит дичь». Фильм никак не впечатляет Тертулиано, и он ложится спать. Ночью его будят звуки из гостиной — оказывается, он забыл выключить пленку и видеомагнитофон заново проигрывает фильм. И тут Тертулиано обнаруживает, что исполнитель одной из эпизодических ролей выглядит в точности так, как он сам пять лет назад. Герой решает во что бы то ни стало найти своего двойника. Поиски оборачиваются настоящим наваждением, путешествием в самое сердце метафизической тьмы…

Автор рипа: _Flash

[img]http://i56.fastpic.ru/big/2014/0423/9d/eb3f45f4ace3ccacc32b91b3a554b09d.png" alt="http://rating.kinopoisk.ru/673910.gif[/img][img]http://i56.fastpic.ru/big/2014/0423/9d/eb3f45f4ace3ccacc32b91b3a554b09d.png" />

Качество видео: WEB-DLRip /Enemy.2013.WEB-DL.720p/
Формат видео: AVI

Видео: 720х304, 23,976 fps, XviD build 73 ~2118 kbps avg, 0.404 bit/pixel
Аудио: 48 kHz, AC3, 2ch, ~192.00 kbps avg



Дополнительно о фильме:
http://i55.fastpic.ru/big/2014/0427/88/78423d4192f8fa23f74b636154c6f588.png


Технические детали съёмки:
http://i55.fastpic.ru/big/2014/0427/75/961938b2ce2eecd7f6568ad7a7e19975.png


Производство, студия дубляжа, прокат:
http://i55.fastpic.ru/big/2014/0427/b7/ce19992584371f796763a2cc6fa78fb7.png


Знаете ли вы, что...
http://i56.fastpic.ru/big/2014/0427/8e/4747da9704d9f0dd11e01be177d3c38e.png


MediaInfo
Общее
Полное имя : D:\Enemy.2013.WEB-DLRip.VO.By_Flash.avi
Формат : AVI
Формат/Информация : Audio Video Interleave
Размер файла : 1,47 Гбайт
Продолжительность : 1 ч. 30 м.
Общий поток : 2320 Кбит/сек
Программа кодирования : VirtualDubMod 1.5.10.3 | www.virtualdub-fr.org || (build 2550/release)
Библиотека кодирования : VirtualDubMod build 2550/release

Видео
Идентификатор : 0
Формат : MPEG-4 Visual
Профиль формата : Advanced Simple@L5
Параметр BVOP формата : 1
Параметр QPel формата : Нет
Параметр GMC формата : Без точки перехода
Параметр матрицы формата : Выборочная
Идентификатор кодека : XVID
Идентификатор кодека/Подсказка : XviD
Продолжительность : 1 ч. 30 м.
Битрейт : 2118 Кбит/сек
Ширина : 720 пикселей
Высота : 304 пикселя
Соотношение сторон : 2,35:1
Частота кадров : 23,976 кадра/сек
Цветовое пространство : YUV
Субдискретизация насыщенности : 4:2:0
Битовая глубина : 8 бит
Тип развёртки : Прогрессивная
Метод сжатия : С потерями
Бит/(Пиксели*Кадры) : 0.404
Размер потока : 1,34 Гбайт (91%)
Библиотека кодирования : XviD 73

Аудио
Идентификатор : 1
Формат : AC-3
Формат/Информация : Audio Coding 3
Расширение режима : CM (complete main)
Параметр Endianness формата : Big
Идентификатор кодека : 2000
Продолжительность : 1 ч. 30 м.
Вид битрейта : Постоянный
Битрейт : 192 Кбит/сек
Каналы : 2 канала
Расположение каналов : Front: L R
Частота : 48,0 КГц
Битовая глубина : 16 бит
Метод сжатия : С потерями
Размер потока : 125 Мбайт (8%)
Выравнивание : Разделение по промежуткам
Продолжительность промежутка : 42 мс. (1,00 видеокадр)
Время предзагрузки промежутка : 500 мс.


Скриншот c названием фильма
http://i56.fastpic.ru/thumb/2014/0427/4b/ee1599f3193b7b83b44b19cbad17e54b.jpeg


Скриншоты
http://i56.fastpic.ru/thumb/2014/0427/33/92b91d853a9981ce64438a1792134e33.jpeg http://i55.fastpic.ru/thumb/2014/0427/f3/839851e8f38a8199540f08d6761939f3.jpeg http://i56.fastpic.ru/thumb/2014/0427/3c/1bb12bb3f140cf539f692177ba951d3c.jpeg
Скриншоты
Похожие файлы
Загрузка / Обновление
КатегорияФильмы AVI RSS лента
Просмотров285 раз (a)
Взят3 раз (a)
Файлы1
Размер1.47 GB (1,580,460,032 байт)
ТраффикСкачано: 1.47 GB, Отдано: 2.86 GB
Добавлен
РаздалViKa  (Искать торренты)
Участники
Участники - Загрузка / Обновление
Просматривают Просматривают Загрузка...

-†- ¿? -†-
« Предыдущая - † Страница † - Следующая »

:: Список Комментариев
Нет комментариев.

 Нет комментариев
Вам запрещенно редактировать, создать или удалять комментарии.
shpv© 2007-2014
Страничка сформирована за 0.750 секунд.
Яндекс.Метрика Rambler's Top100