скачать торрент трекер Friends
 
 Главная  •  Торренты  •  Новые релизы  •  Форум  •   •  Персоны кино  •  Правила  •  ЧаВо

Язык интерфейса
Язык интерфейса:


Привет, Гость
[15] из [15]
Введите Логин:
Введите Пароль:
Регистрация
Восстановить Пароль

Линки
АнекдотыБанкоматВсе теги / меткиДополнительные услугиТехподдержка

Главное Меню
 Главная Торренты Релизы за сегодня Персоны кино Запросы / Предложения (3) Правила ЧаВо Проверка BB кодов Топ 10 Архив новостей Прошлые опросы Форматы файлов Группы Последние комментарии Техподдержка

:: Детали раздачи
Торрент раздача является мультитрекерной — учтите, количество раздающих не будет совпадать с количеством участников на сайте (скачивание на клиентской стороне зависит от настроек uTorrent клиент программы, настройки -> Включить DHT, Обмен пирами и Поиск лок-х пиров).
Если висит надпись, пиры по нулям - не бойтесь, возможность скачать повторно торрент раздачу - есть. Попробуйте, в случае отказа - прокоментируйте или нажмите на "Позвать скачавших".

Высоцкий (Высоцкий. Спасибо, что живой) (Телевизионная версия) / Серии: 01-02 из 04 (Петр Буслов)

Скачать
Магнет
ПомощьКак скачать раздачу
Поделиться
Теги / Меткидрама, биография
Постер
ОписаниеГод выпуска: 2011
Производство: Monumental Pictures
Жанр: Драма, биография
Продолжительность: 00:47:26 + 00:50:36
Субтитры: Отсутствуют

Режиссёр: Петр Буслов

В ролях: Владимир Высоцкий, Сергей Безруков, Оксана Акиньшина, Андрей Смоляков, Дмитрий Астрахан, Иван Ургант, Максим Леонидов, Андрей Панин, Владимир Ильин, Сергей Шакуров, Алла Покровская, Шухрат Иргашев и другие.

Описание: Фильм основан на реальных событиях. Конец 1970-х. Владимир Высоцкий - самый знаменитый человек в СССР, кумир миллионов. Но его силы на исходе. Он измотан, больше не ощущает свой дар, не может писать стихи. В июле 1979 года во время гастролей в Узбекистане у Владимира Высоцкого происходит остановка сердца... Хотя фильм основан на реальных событиях, в него вошли некоторые сцены и события, взятые из других эпизодов жизни Высоцкого, – в другом месте, в другое время -- и соединившие некоторых людей, которые, возможно, и не сталкивались друг с другом именно в тот момент, о котором рассказывает фильм.

Все раздачи сериала: http://rutracker.org/forum/tracker.php?nm=%D0%92%D1...%BE%D0%B9%202011
Сэмпл: http://multi-up.com/918430

Источник: собственный рип

Доп. информация: Релиз - http://s49.radikal.ru/i126/1005/66/41ae5e297779.jpg

http://i43.fastpic.ru/big/2012/0921/e9/90d4ee0bff997b63269d9d4b002997e9.jpg
Рип чистый. Без посторонних надписей. Выкладывается как есть.

Качество: SATRip
Формат: AVI
Видео кодек: XVID
Аудио кодек: MP3
Видео: 720x304 (2.35:1) 25.000 fps 1 850 Kbps, 0.216 bit/pixel
Аудио: MPEG Audio, 48000Hz, 2 channels, 192 Кбит/сек

Скриншоты
http://i60.fastpic.ru/thumb/2013/1030/83/36b9cf6e52edc6fc120166ac0d5ab783.jpeg http://i60.fastpic.ru/thumb/2013/1030/dc/70b8b3c28e9fc9bcec9deaa5e40af0dc.jpeg http://i60.fastpic.ru/thumb/2013/1030/ae/8cfcf3447d1fd048248c9601cff317ae.jpeg
http://i60.fastpic.ru/thumb/2013/1030/ff/b8cfad9699d13e0f4b52db3a2de282ff.jpeg http://i60.fastpic.ru/thumb/2013/1030/af/24c67b575c6badea4220541fcde9f8af.jpeg http://i60.fastpic.ru/thumb/2013/1030/0f/e7af9bfb3927001bc1b7107e4c5eae0f.jpeg


MI


GeneralComplete name : D:\Выкладка\Высоцкий (2011, Сериал, Драма, Биография, SATRip) (MYDIMKA)\01 серия.aviFormat : AVIFormat/Info : Audio Video InterleaveFile size : 469 MiBDuration : 47mn 26sOverall bit rate : 1 882 KbpsWriting application : VirtualDubMod 1.5.10.3 | www.virtualdub-fr.org || (build 2550/release)Writing library : VirtualDubMod build 2550/release

VideoID : 0Format : MPEG-4 VisualFormat profile : Advanced Simple@L5Format settings, BVOP : 2Format settings, QPel : NoFormat settings, GMC : No warppointsFormat settings, Matrix : Default (H.263)Codec ID : XVIDCodec ID/Hint : XviDDuration : 47mn 26sBit rate : 1 850 KbpsWidth : 720 pixelsHeight : 304 pixelsDisplay aspect ratio : 2.35:1Frame rate : 25.000 fpsColor space : YUVChroma subsampling : 4:2:0Bit depth : 8 bitsScan type : ProgressiveCompression mode : LossyBits/(Pixel*Frame) : 0.216Stream size : 400 MiB (85%)Writing library : XviD 1.2.1 (UTC 2008-12-04)

AudioID : 1Format : MPEG AudioFormat version : Version 1Format profile : Layer 3Codec ID : 55Codec ID/Hint : MP3Duration : 47mn 26sBit rate mode : ConstantBit rate : 192 KbpsChannel count : 2 channelsSampling rate : 48.0 KHzCompression mode : LossyStream size : 65.2 MiB (14%)Alignment : Aligned on interleavesInterleave, duration : 40 ms (1.00 video frame)Interleave, preload duration : 504 msWriting library : LAME3.99rEncoding settings : -m s -V 4 -q 2 -lowpass 18.6 -b 192



Внимание! Раздача ведётся путём добавления новых выпусков
Внимание! Раздача ведётся путём добавления новых выпусков; при каждом добавлении создётся новый торрент. Чтобы начать докачку нового выпуска, пользователям необходимо сделать следующее:
(1) остановить скачивание,
(2) удалить старый торрент у себя из клиента (старые выпуски удалять не надо),
(3) скачать новый торрент и запустить его у себя в клиенте вместо старого, при этом указать клиенту путь в старую папку куда и должно происходить скачивание новых выпусков.
Ваш клиент при этом должен произвести хеширование (проверку) старой папки (если не производит сам - помогите ему сделать это), и будет докачивать только те выпуски которых у вас ещё нет. Старые выпуски при этом не удаляются, а продолжают раздаваться!
Eсли вы уже удалили старые выпуски, то предотвратить повторную закачку старых выпусков можно, отжав галочку в соответсвующих местах при запуске нового торрента. По возможности, желательно не удалять старые выпуски как можно дольше чтобы релизёр не столько продолжал раздавать старые выпуски, а смог сконцентрироваться на новых.
Похожие файлы
Загрузка / Обновление
КатегорияСериалы RSS лента
Просмотров259 раз (a)
Взят0 раз (a)
Файлы2
Размер1.02 GB (1,090,263,040 байт)
Добавлен
РаздалViKa  (Искать торренты)
Участники
Участники - Загрузка / Обновление
Просматривают Просматривают Загрузка...

-†- ¿? -†-
« Предыдущая - † Страница † - Следующая »

:: Список Комментариев
Нет комментариев.

 Нет комментариев
Вам запрещенно редактировать, создать или удалять комментарии.
shpv© 2007-2014
Страничка сформирована за 0.233 секунд.
Яндекс.Метрика Rambler's Top100