скачать торрент трекер Friends
 
 Главная  •  Торренты  •  Новые релизы  •  Форум  •   •  Персоны кино  •  Правила  •  ЧаВо

Язык интерфейса
Язык интерфейса:


Привет, Гость
[15] из [15]
Введите Логин:
Введите Пароль:
Регистрация
Восстановить Пароль

Линки
АнекдотыБанкоматВсе теги / меткиДополнительные услугиТехподдержка

Главное Меню
 Главная Торренты Релизы за сегодня Персоны кино Запросы / Предложения (3) Правила ЧаВо Проверка BB кодов Топ 10 Архив новостей Прошлые опросы Форматы файлов Группы Последние комментарии Техподдержка

:: Детали раздачи
Торрент раздача является мультитрекерной — учтите, количество раздающих не будет совпадать с количеством участников на сайте (скачивание на клиентской стороне зависит от настроек uTorrent клиент программы, настройки -> Включить DHT, Обмен пирами и Поиск лок-х пиров).
Если висит надпись, пиры по нулям - не бойтесь, возможность скачать повторно торрент раздачу - есть. Попробуйте, в случае отказа - прокоментируйте или нажмите на "Позвать скачавших".

Мотыльки / Серии: 1-4 из 4 (Виталий Воробьёв)

Скачать
Магнет
ПомощьКак скачать раздачу
Поделиться
Теги / Меткидрама
Постер
ОписаниеГод выпуска: 2013
Производство: Украина, film.ua
Жанр: Драма
Продолжительность: ~ 00:50:00 сери
Режиссёр: Виталий Воробьёв

В ролях: Юрий Борисов, Мария Поезжаева, Евгения Лоза, Андрей Казаков, Юрий Назаров, Юлия Рутберг, Артём Ткаченко, Максим Заусалин, Тимур Боканча, Олег Примогенов, Станислав Щёкин, Семен Штейнберг, Наталья Васько, Александр Игнатуша, Евгений Ефремов, Азамат Нигманов, Евгений Сангаджиев, Дарья Питерова

Описание: История любви выпускницы старших классов Али и солдата срочной службы Паши, которая разворачивается на фоне одной из самых масштабных техногенных катастроф XX века, Чернобыльской аварии. Им суждено было встретиться в конце апреля 1986 года в городе Припять. Словно мотыльки, стремящиеся к огню, они летели навстречу своим чувствам, не замечая ничего вокруг...

Релиз http://i1.imageban.ru/out/2013/12/25/6757870fb792b4dbe53d867619848c94.png

Все раздачи сериала: http://rutracker.org/forum/tracker.php?f=9&nm=%...2%FB%EB%FC%EA%E8
Сэмпл: http://multi-up.com/969879

Качество: DVB
Формат: MPEG-PS
Видео кодек: MPEG2
Аудио кодек: MP2
Видео: MPEG Video at 4159 Кбит/сек Aspect : 720 x 576 (1.778) at 25.000 fps
Аудио: MPEG Audio at 192 Кбит/сек Infos : 2 канала, 48,0 КГц

MI
Общее
Полное имя : E:\MPEG\Мотыльки 2013.DVB.RG Русские сериалы\Мотыльки. 1 серия.mpg
Формат : MPEG-PS
Размер файла : 1,50 Гбайт
Продолжительность : 48 м.
Режим общего битрейта : Переменный
Общий поток : 4440 Кбит/сек

Видео
Идентификатор : 224 (0xE0)
Формат : MPEG Video
Версия формата : Version 2
Профиль формата : Main@Main
Параметр BVOP формата : Да
Параметр матрицы формата : Выборочная
Параметр GOP формата : M=3, N=12
Продолжительность : 48 м.
Вид битрейта : Переменный
Битрейт : 4159 Кбит/сек
Максимальный битрейт : 15,0 Мбит/сек
Ширина : 720 пикселей
Высота : 576 пикселей
Соотношение сторон : 16:9
Частота кадров : 25,000 кадров/сек
Стандарт вещания : PAL
Цветовое пространство : YUV
Субдискретизация насыщенности : 4:2:0
Битовая глубина : 8 бит
Тип развёртки : Чересстрочная
Порядок развёртки : Верхнее поле первое
Метод сжатия : С потерями
Бит/(Пиксели*Кадры) : 0.401
Временной код первого кадра : 00:00:00:00
Оригинал временного кода : Group of pictures header
Размер потока : 1,41 Гбайт (94%)

Аудио
Идентификатор : 192 (0xC0)
Формат : MPEG Audio
Версия формата : Version 1
Профиль формата : Layer 2
Продолжительность : 48 м.
Вид битрейта : Постоянный
Битрейт : 192 Кбит/сек
Каналы : 2 канала
Частота : 48,0 КГц
Метод сжатия : С потерями
Размер потока : 66,6 Мбайт (4%)


Скриншоты
http://i55.fastpic.ru/thumb/2014/0427/21/949a544c8adad8b42d4c2373d988b621.jpeg http://i55.fastpic.ru/thumb/2014/0427/e5/4236f03060b2fec5b8ebb70be70daee5.jpeg http://i56.fastpic.ru/thumb/2014/0427/5d/e2dfeebeb632c79542d03ed39ceec65d.jpeg http://i56.fastpic.ru/thumb/2014/0427/2d/1ccfdc87288c575e0b26a1b6a6dc3a2d.jpeg http://i56.fastpic.ru/thumb/2014/0427/0f/dcb2a4ef253a3f92029aa9008d096e0f.jpeg http://i55.fastpic.ru/thumb/2014/0427/a5/e49de9e713d43531a97c023ccc59f8a5.jpeg
Похожие файлы
Загрузка / Обновление
КатегорияСериалы RSS лента
Просмотров253 раз (a)
Взят2 раз (a)
Файлы4
Размер6.06 GB (6,506,430,464 байт)
Добавлен
РаздалViKa  (Искать торренты)
Участники
Участники - Загрузка / Обновление
Просматривают Просматривают Загрузка...

-†- ¿? -†-
« Предыдущая - † Страница † - Следующая »

:: Список Комментариев
Нет комментариев.

 Нет комментариев
Вам запрещенно редактировать, создать или удалять комментарии.
shpv© 2007-2014
Страничка сформирована за 2.898 секунд.
Яндекс.Метрика Rambler's Top100