скачать торрент трекер Friends
 
 Главная  •  Торренты  •  Новые релизы  •  Форум  •   •  Персоны кино  •  Правила  •  ЧаВо

Язык интерфейса
Язык интерфейса:


Привет, Гость
[15] из [15]
Введите Логин:
Введите Пароль:
Регистрация
Восстановить Пароль

Линки
АнекдотыБанкоматВсе теги / меткиДополнительные услугиТехподдержка

Главное Меню
 Главная Торренты Релизы за сегодня Персоны кино Запросы / Предложения (3) Правила ЧаВо Проверка BB кодов Топ 10 Архив новостей Прошлые опросы Форматы файлов Группы Последние комментарии Техподдержка

:: Детали раздачи
Торрент раздача является мультитрекерной — учтите, количество раздающих не будет совпадать с количеством участников на сайте (скачивание на клиентской стороне зависит от настроек uTorrent клиент программы, настройки -> Включить DHT, Обмен пирами и Поиск лок-х пиров).
Если висит надпись, пиры по нулям - не бойтесь, возможность скачать повторно торрент раздачу - есть. Попробуйте, в случае отказа - прокоментируйте или нажмите на "Позвать скачавших".

Настоящие / Серии: 8 из 8 (Евгений Звездаков)

Скачать
Магнет
ПомощьКак скачать раздачу
Поделиться
Теги / Меткикриминал
Постер
ОписаниеГод выпуска: 2011
Дистрибьютор: «Русское счастье Энтертеймент»
Производство: ЗАО «Всемирные Русские Студии», "Грин Фильм"
Жанр: криминал

Продолжительность: 392 мин.
Субтитры: нет

Режиссёр: Евгений Звездаков

В ролях:
Сергей Маховиков, Алексей Макаров, Александр Большаков, Светлана Антонова, Владимир Епифанцев,
Игорь Скляр, Сергей Юшкевич, Кристина Кузьмина, Александр Вонтов, Юрий Беляев

Описание:
В пограничном портовом городе бандиты планируют захватить власть. Город может стать "окном" для торговли оружием и наркотиками. Для реализации своего плана на ближайших выборах бандитская группировка выставляет своего кандидата в мэры. Их конкуренты, властные структуры, ведут к победе своего кандидата. Чтобы разрушить планы бандитов, они засылают в группировку шпиона, опытного опера Вестникова...

Доп. информация:
http://static.rutracker.org/smiles/icon_arrow.gif ИСХОДНИК http://static.rutracker.org/smiles/icon_arrow2.gif
При помощи DVD Remake Pro удалены заставки, предупреждения, реклама
Навигация диска сохранена, нерабочие кнопки заблокированы
Общее сжатие - 0 %.



Софт
DVD Remake Pro



Все раздачи сериала

Качество: 2*DVD5
Формат: DVD-Video
http://i8.fastpic.ru/big/2010/0729/14/5366b11fc226de284cc03961610da414.png
Видео: PAL 16:9 (720x576) VBR, Auto Letterboxed
Аудио: Russian (Dolby AC3, 2 ch) 96 Kbps



MediaInfo
General
Complete name : D:\Настоящие (8 серий из 8) 2хDVD5\2\VIDEO_TS\VTS_01_2.VOB
Format : MPEG-PS
File size : 1 024 MiB
Duration : 8mn 20s
Overall bit rate : 17.2 Mbps

Video
ID : 224 (0xE0)
Format : MPEG Video
Format version : Version 2
Format profile : Main@Main
Format settings, BVOP : Yes
Format settings, Matrix : Default
Duration : 8mn 20s
Bit rate mode : Variable
Bit rate : 16.7 Mbps
Width : 720 pixels
Height : 576 pixels
Display aspect ratio : 16:9
Frame rate : 25.000 fps
Standard : PAL
Color space : YUV
Chroma subsampling : 4:2:0
Bit depth : 8 bits
Scan type : Progressive
Bits/(Pixel*Frame) : 1.614
Stream size : 998 MiB (97%)

Audio
ID : 128 (0x80)
Format : AC-3
Format/Info : Audio Coding 3
Mode extension : CM (complete main)
Duration : 8mn 20s
Bit rate mode : Constant
Bit rate : 96.0 Kbps
Channel(s) : 2 channels
Channel positions : Front: L R
Sampling rate : 48.0 KHz
Bit depth : 16 bits
Video delay : -416ms
Stream size : 5.72 MiB (1%)

Menu





DVDInfo DVD 1
Size: 3.63 Gb ( 3 809 464 KBytes ) - DVD-5
Enabled regions: 1, 2, 3, 4, 5, 6, 7, 8

VTS_01 :
Play Length: 00:47:54+00:49:20+00:48:57+00:48:46+00:00:03
Video: PAL 16:9 (720x576) VBR, Auto Letterboxed
Audio:
English (Dolby AC3, 2 ch)

VTS_02 :
Play Length:
Video: PAL 4:3 (720x576) VBR
Audio:
English (Dolby AC3, 2 ch)

VTS_03 :
Play Length:
Video: PAL 4:3 (720x576) VBR
Audio:
English (MPEG1, 2 ch)

Menu Video:
PAL 4:3 (720x576) VBR
Menu English Language Unit :
Root Menu

Audio #1: AC3, 2/0 ch, 96Kbps, Delay 0 mSec


DVDInfo DVD 2
Size: 3.61 Gb ( 3 785 278 KBytes ) - DVD-5
Enabled regions: 1, 2, 3, 4, 5, 6, 7, 8

VTS_01 :
Play Length: 00:00:03+00:48:41+00:49:27+00:49:20+00:49:17
Video: PAL 16:9 (720x576) VBR, Auto Letterboxed
Audio:
English (Dolby AC3, 2 ch)

VTS_02 :
Play Length:
Video: PAL 4:3 (720x576) VBR
Audio:
English (Dolby AC3, 2 ch)

VTS_03 :
Play Length:
Video: PAL 4:3 (720x576) VBR
Audio:
English (MPEG1, 2 ch)

Menu Video:
PAL 4:3 (720x576) VBR
Menu English Language Unit :
Root Menu

Audio #1: AC3, 2/0 ch, 96Kbps, Delay 0 mSec





Скриншоты меню
http://i43.fastpic.ru/big/2012/0709/d6/e63e3a047f069ff92f4c421c67c9d7d6.png
http://i41.fastpic.ru/big/2012/0709/63/f55e9b1501d5f98577844e59e17fb463.png






Скриншоты сериала DVD 1
http://i41.fastpic.ru/big/2012/0709/ed/514019bc9027c91069a794e1bd87dfed.png
http://i42.fastpic.ru/big/2012/0709/22/ddfb481b46c87ff28fd9d78b7911d822.png
http://i43.fastpic.ru/big/2012/0709/f2/fa296b2d46a4ea9ea33f4e1e6c1983f2.png
http://i40.fastpic.ru/big/2012/0709/e2/7ab28c79b5d35cf4c512f12beaeb3be2.png
http://i43.fastpic.ru/big/2012/0709/9f/5eb328d8de927257c0583237df0ac89f.png


http://i40.fastpic.ru/big/2012/0709/ba/be453a66fbaaea61a020608fb9dbb4ba.png
http://i40.fastpic.ru/big/2012/0709/59/34ba1f433d98d822546b4c99047fc659.png
http://i42.fastpic.ru/big/2012/0709/06/df69707d129b89351bde708a15c2f406.png
http://i40.fastpic.ru/big/2012/0709/34/ff9874d63aa63e9a27407ddd2158f134.png
http://i42.fastpic.ru/big/2012/0709/00/7e180a8121d29bd37d77b3e6438ff000.png



Скриншоты сериала DVD 2
http://i41.fastpic.ru/big/2012/0709/73/c0af45dab3ef018398595b1e1867e373.png
http://i43.fastpic.ru/big/2012/0709/07/f0be36ca2e896e7b9d3c451b3a32fc07.png
http://i42.fastpic.ru/big/2012/0709/2e/c8204c406852c00362ee6739fe14a92e.png
http://i40.fastpic.ru/big/2012/0709/88/9f096d572bd5f91dc0d1240a03792788.png
http://i42.fastpic.ru/big/2012/0709/23/c1612cac1b8b644e753a6064228cf023.png


http://i41.fastpic.ru/big/2012/0709/6a/2ba3601822ac0788845d2d43e5014e6a.png
http://i43.fastpic.ru/big/2012/0709/57/d6a48ffa7c5108333c3dd3f9d48b5c57.png
http://i41.fastpic.ru/big/2012/0709/a1/325ec2cf595c72622547e5bf13d904a1.png
http://i42.fastpic.ru/big/2012/0709/ae/a524670d64c93d702c900aac6210d5ae.png
http://i41.fastpic.ru/big/2012/0709/c2/f8fa68f2d1fb41e4e7c54e6f502214c2.png






Ковры
http://i4.imageban.ru/thumbs/2012.07.09/e4f014c455fe11caaae94a4b8e4115a8.jpg http://i4.imageban.ru/thumbs/2012.07.09/b0397d8c7dbb7647773b7b3eb1c3c6ab.jpg



Раздаю до первых 5-ти скачавших, на раздачи не возвращаюсь...
Скриншоты
Похожие файлы
Загрузка / Обновление
КатегорияСериалы RSS лента
Просмотров273 раз (a)
Взят5 раз (a)
Файлы32
Размер7.24 GB (7,777,015,808 байт)
Добавлен
РаздалViKa  (Искать торренты)
Участники
Участники - Загрузка / Обновление
Просматривают Просматривают Загрузка...

-†- ¿? -†-
« Предыдущая - † Страница † - Следующая »

:: Список Комментариев
Нет комментариев.

 Нет комментариев
Вам запрещенно редактировать, создать или удалять комментарии.
shpv© 2007-2014
Страничка сформирована за 0.662 секунд.
Яндекс.Метрика Rambler's Top100